×

¿Problemas para descargar con Mozilla, EDGE? Deshabilita la opción "Abrir vinculos en una pestaña nueva" tal como lo muestra ésta imagen.

El Callejón de Las Almas Perdidas (2021) PLACEBO Full HD 1080p Latino

3.811 vistas

Información de El Callejón de Las Almas Perdidas (2021) PLACEBO Full HD 1080p Latino

Datos de la película

  • Calidad: Full 1080p
  • Audio: Español Latino AC3 5.1 BLURAY - Ingles DTS 5.1 BLURAY
  • Subtitulos: Español Latino PGS - Ingles PGS
  • Resolución: 1920x1080p
  • Formato: MKV
  • Codec: H.264
  • Encoder: Melkor
  • Mediainfo: Clic para Mostrar Datos Ver
  • Nightmare Alley (2021) PLACEBO 1080p Latino.mkv
    Format                      : Matroska
    Format version              : Version 4
    File size                   : 6.76 GiB
    Duration                    : 2 h 30 min
    Overall bit rate            : 6 447 kb/s
    Movie name                  : Nightmare Alley (2021) CinemaniaHDD.Net
    Encoded date                : UTC 2022-03-16 17:55:46
    Writing application         : mkvmerge v56.1.0 ('My Friend') 64-bit
    Writing library             : libebml v1.4.2 + libmatroska v1.6.4
    Attachments                 : CINEMANIAHD.png

    Video
    ID                          : 1
    Format                      : AVC
    Format/Info                 : Advanced Video Codec
    Format profile              : High@L4.1
    Format settings             : CABAC / 4 Ref Frames
    Format settings, CABAC      : Yes
    Format settings, Reference  : 4 frames
    Codec ID                    : V_MPEG4/ISO/AVC
    Duration                    : 2 h 30 min
    Bit rate                    : 4 265 kb/s
    Width                       : 1 920 pixels
    Height                      : 1 080 pixels
    Display aspect ratio        : 16:9
    Frame rate mode             : Constant
    Frame rate                  : 23.976 (24000/1001) FPS
    Color space                 : YUV
    Chroma subsampling          : 4:2:0
    Bit depth                   : 8 bits
    Scan type                   : Progressive
    Bits/(Pixel*Frame)          : 0.086
    Stream size                 : 4.47 GiB (66%)
    Title                       : Full HD1080p [CinemaniaHDD]
    Writing library             : x264 core 163 r3059 b684ebe0
    Encoding settings           : cabac=1 / ref=4 / deblock=1:0:0 / analyse=0x3:0x133 / me=tesa / subme=11 / psy=1 / psy_rd=1.00:0.00 / mixed_ref=1 / me_range=24 / chroma_me=1 / trellis=2 / 8x8dct=1 / cqm=0 / deadzone=21,11 / fast_pskip=0 / chroma_qp_offset=-2 / threads=24 / lookahead_threads=6 / sliced_threads=0 / nr=0 / decimate=1 / interlaced=0 / bluray_compat=0 / constrained_intra=0 / bframes=16 / b_pyramid=2 / b_adapt=2 / b_bias=0 / direct=3 / weightb=1 / open_gop=0 / weightp=2 / keyint=240 / keyint_min=24 / scenecut=40 / intra_refresh=0 / rc_lookahead=60 / rc=crf / mbtree=1 / crf=19.0 / qcomp=0.60 / qpmin=0 / qpmax=69 / qpstep=4 / vbv_maxrate=62500 / vbv_bufsize=78125 / crf_max=0.0 / nal_hrd=none / filler=0 / ip_ratio=1.40 / aq=1:1.00
    Default                     : Yes
    Forced                      : Yes
    Color range                 : Limited
    Color primaries             : BT.709
    Transfer characteristics    : BT.709
    Matrix coefficients         : BT.709

    Audio #1
    ID                          : 2
    ID in the original source m : 4355 (0x1103)
    Format                      : AC-3
    Format/Info                 : Audio Coding 3
    Commercial name             : Dolby Digital
    Codec ID                    : A_AC3
    Duration                    : 2 h 30 min
    Bit rate mode               : Constant
    Bit rate                    : 640 kb/s
    Channel(s)                  : 6 channels
    Channel layout              : L R C LFE Ls Rs
    Sampling rate               : 48.0 kHz
    Frame rate                  : 31.250 FPS (1536 SPF)
    Compression mode            : Lossy
    Stream size                 : 687 MiB (10%)
    Title                       : Español Latino [CinemaniaHDD]
    Language                    : Spanish
    Service kind                : Complete Main
    Default                     : Yes
    Forced                      : Yes
    Original source medium      : Blu-ray

    Audio #2
    ID                          : 3
    Format                      : DTS
    Format/Info                 : Digital Theater Systems
    Codec ID                    : A_DTS
    Duration                    : 2 h 30 min
    Bit rate mode               : Constant
    Bit rate                    : 1 509 kb/s
    Channel(s)                  : 6 channels
    Channel layout              : C L R Ls Rs LFE
    Sampling rate               : 48.0 kHz
    Frame rate                  : 93.750 FPS (512 SPF)
    Bit depth                   : 24 bits
    Compression mode            : Lossy
    Stream size                 : 1.58 GiB (23%)
    Title                       : Ingles [CinemaniaHDD]
    Language                    : English
    Default                     : No
    Forced                      : No

    Text #1
    ID                          : 4
    ID in the original source m : 4612 (0x1204)
    Format                      : PGS
    Muxing mode                 : zlib
    Codec ID                    : S_HDMV/PGS
    Codec ID/Info               : Picture based subtitle format used on BDs/HD-DVDs
    Duration                    : 2 h 10 min
    Bit rate                    : 72 b/s
    Count of elements           : 8
    Stream size                 : 69.4 KiB (0%)
    Title                       : Forzados-PGS [CinemaniaHDD]
    Language                    : Spanish
    Default                     : No
    Forced                      : No
    Original source medium      : Blu-ray

    Text #2
    ID                          : 5
    ID in the original source m : 4610 (0x1202)
    Format                      : PGS
    Muxing mode                 : zlib
    Codec ID                    : S_HDMV/PGS
    Codec ID/Info               : Picture based subtitle format used on BDs/HD-DVDs
    Duration                    : 2 h 18 min
    Bit rate                    : 35.7 kb/s
    Count of elements           : 3737
    Stream size                 : 35.4 MiB (1%)
    Title                       : Español-PGS [CinemaniaHDD]
    Language                    : Spanish
    Default                     : No
    Forced                      : No
    Original source medium      : Blu-ray

    Text #3
    ID                          : 6
    ID in the original source m : 4608 (0x1200)
    Format                      : PGS
    Muxing mode                 : zlib
    Codec ID                    : S_HDMV/PGS
    Codec ID/Info               : Picture based subtitle format used on BDs/HD-DVDs
    Duration                    : 2 h 22 min
    Bit rate                    : 45.9 kb/s
    Count of elements           : 4646
    Stream size                 : 46.9 MiB (1%)
    Title                       : Ingles-PGS [CinemaniaHDD]
    Language                    : English
    Default                     : No
    Forced                      : No
    Original source medium      : Blu-ray

    Text #4
    ID                          : 7
    Format                      : UTF-8
    Codec ID                    : S_TEXT/UTF8
    Codec ID/Info               : UTF-8 Plain Text
    Duration                    : 2 h 18 min
    Bit rate                    : 0 b/s
    Count of elements           : 17
    Stream size                 : 432 Bytes (0%)
    Title                       : Forzados-SRT [CinemaniaHDD]
    Language                    : Spanish
    Default                     : Yes
    Forced                      : Yes

    Text #5
    ID                          : 8
    Format                      : UTF-8
    Codec ID                    : S_TEXT/UTF8
    Codec ID/Info               : UTF-8 Plain Text
    Duration                    : 2 h 18 min
    Bit rate                    : 51 b/s
    Count of elements           : 1700
    Stream size                 : 52.4 KiB (0%)
    Title                       : Español-SRT [CinemaniaHDD]
    Language                    : Spanish
    Default                     : No
    Forced                      : No

    Menu
    00:00:00.000                : Chapter 01
    00:06:01.611                : Chapter 02
    00:08:32.386                : Chapter 03
    00:14:11.392                : Chapter 04
    00:18:53.507                : Chapter 05
    00:22:54.748                : Chapter 06
    00:29:34.230                : Chapter 07
    00:34:22.268                : Chapter 08
    00:41:27.318                : Chapter 09
    00:50:50.088                : Chapter 10
    01:00:07.395                : Chapter 11
    01:10:43.155                : Chapter 12
    01:18:20.362                : Chapter 13
    01:27:15.855                : Chapter 14
    01:38:15.472                : Chapter 15
    01:47:08.588                : Chapter 16
    01:52:52.932                : Chapter 17
    01:58:58.756                : Chapter 18
    02:05:42.618                : Chapter 19
    02:14:06.788                : Chapter 20
    02:20:56.990                : Chapter 21

  • Peso: 6.76 GiB

Sinopsis

Descargar El Callejón de Las Almas Perdidas (2021) PLACEBO Full HD 1080p Latino. Un buscavidas se compincha con una pitonisa para engañar a la gente y conseguir dinero… Remake del film «El callejón de las almas perdidas» (Nightmare Alley) de 1947.

Ficha técnica

Video trailer de la película

Enlaces de descarga

Rip de Bluray

Descargar El Callejón de Las Almas Perdidas (2021) PLACEBO Full HD 1080p Latino




Aportes de DPeliculasHDmega la pass es:dpeliculashdmega.org Aportes de CinemaniaHD la pass es:cinemaniahdd.com

Películas relacionadas

descargar El Callejón de Las Almas Perdidas (2021) PLACEBO Full HD 1080p Latino Full 1080p 1080p gratis, El Callejón de Las Almas Perdidas (2021) PLACEBO Full HD 1080p Latino Full 1080p mega 1 link, El Callejón de Las Almas Perdidas (2021) PLACEBO Full HD 1080p Latino Full 1080p pelicula completa, descargar El Callejón de Las Almas Perdidas (2021) PLACEBO Full HD 1080p Latino Full 1080p gratis en mega.

El Callejón de Las Almas Perdidas (2021) PLACEBO Full HD 1080p Latino pelicula full hd, El Callejón de Las Almas Perdidas (2021) PLACEBO Full HD 1080p Latino mega latino, El Callejón de Las Almas Perdidas (2021) PLACEBO Full HD 1080p Latino 4k latino, El Callejón de Las Almas Perdidas (2021) PLACEBO Full HD 1080p Latino pelicula completa, El Callejón de Las Almas Perdidas (2021) PLACEBO Full HD 1080p Latino descargar gratis, descargar El Callejón de Las Almas Perdidas (2021) PLACEBO Full HD 1080p Latino pelicula latino, El Callejón de Las Almas Perdidas (2021) PLACEBO Full HD 1080p Latino 1 link mega, El Callejón de Las Almas Perdidas (2021) PLACEBO Full HD 1080p Latino 1 link google drive, El Callejón de Las Almas Perdidas (2021) PLACEBO Full HD 1080p Latino hd 1080p latino.
Comentarios 0