×

¿Problemas para descargar con Mozilla, EDGE? Deshabilita la opción "Abrir vinculos en una pestaña nueva" tal como lo muestra ésta imagen.

El cadáver de la novia (2005) Full HD 1080p Latino – CMHDD

457 vistas

Información de El cadáver de la novia (2005) Full HD 1080p Latino – CMHDD

Datos de la película

  • Calidad: Full 1080p
  • Audio: Español Latino AC3 5.1 BLURAY - Ingles AC3 5.1 BLURAY
  • Subtitulos: Español Latino PGS
  • Resolución: 1920x1080p
  • Formato: MKV
  • Codec: H.264
  • Encoder: Dracarys
  • Mediainfo: Clic para Mostrar Datos Ver
  • Format                      : Matroska
    Format version              : Version 4
    File size                   : 2.69 GiB
    Duration                    : 1 h 17 min
    Overall bit rate            : 4 993 kb/s
    Movie name                  : El cadáver de la novia (2005) Full HD 1080p Latino - CMHDD
    Encoded date                : UTC 2021-03-16 20:59:25
    Writing application         : mkvmerge v51.0.0 ('I Wish') 64-bit
    Writing library             : libebml v1.4.0 + libmatroska v1.6.2

    Video
    ID                          : 1
    Format                      : AVC
    Format/Info                 : Advanced Video Codec
    Format profile              : High@L4.1
    Format settings             : CABAC / 4 Ref Frames
    Format settings, CABAC      : Yes
    Format settings, Reference  : 4 frames
    Codec ID                    : V_MPEG4/ISO/AVC
    Duration                    : 1 h 17 min
    Bit rate                    : 3 700 kb/s
    Width                       : 1 920 pixels
    Height                      : 1 080 pixels
    Display aspect ratio        : 16:9
    Frame rate mode             : Constant
    Frame rate                  : 23.976 (24000/1001) FPS
    Color space                 : YUV
    Chroma subsampling          : 4:2:0
    Bit depth                   : 8 bits
    Scan type                   : Progressive
    Bits/(Pixel*Frame)          : 0.074
    Stream size                 : 1.99 GiB (74%)
    Writing library             : x264 core 157 r2935 545de2f
    Encoding settings           : cabac=1 / ref=4 / deblock=1:0:0 / analyse=0x3:0x133 / me=tesa / subme=11 / psy=1 / psy_rd=1.00:0.00 / mixed_ref=1 / me_range=24 / chroma_me=1 / trellis=2 / 8x8dct=1 / cqm=0 / deadzone=21,11 / fast_pskip=0 / chroma_qp_offset=-2 / threads=24 / lookahead_threads=6 / sliced_threads=0 / nr=0 / decimate=1 / interlaced=0 / bluray_compat=0 / constrained_intra=0 / bframes=16 / b_pyramid=2 / b_adapt=2 / b_bias=0 / direct=3 / weightb=1 / open_gop=0 / weightp=2 / keyint=240 / keyint_min=24 / scenecut=40 / intra_refresh=0 / rc_lookahead=60 / rc=crf / mbtree=1 / crf=20.0 / qcomp=0.60 / qpmin=0 / qpmax=69 / qpstep=4 / vbv_maxrate=62500 / vbv_bufsize=78125 / crf_max=0.0 / nal_hrd=none / filler=0 / ip_ratio=1.40 / aq=1:1.00
    Default                     : Yes
    Forced                      : No
    Color range                 : Limited
    Color primaries             : BT.709
    Transfer characteristics    : BT.709
    Matrix coefficients         : BT.709

    Audio #1
    ID                          : 2
    Format                      : AC-3
    Format/Info                 : Audio Coding 3
    Commercial name             : Dolby Digital
    Codec ID                    : A_AC3
    Duration                    : 1 h 17 min
    Bit rate mode               : Constant
    Bit rate                    : 640 kb/s
    Channel(s)                  : 6 channels
    Channel layout              : L R C LFE Ls Rs
    Sampling rate               : 48.0 kHz
    Frame rate                  : 31.250 FPS (1536 SPF)
    Compression mode            : Lossy
    Stream size                 : 353 MiB (13%)
    Language                    : Spanish
    Service kind                : Complete Main
    Default                     : Yes
    Forced                      : No

    Audio #2
    ID                          : 3
    Format                      : AC-3
    Format/Info                 : Audio Coding 3
    Commercial name             : Dolby Digital
    Codec ID                    : A_AC3
    Duration                    : 1 h 17 min
    Bit rate mode               : Constant
    Bit rate                    : 640 kb/s
    Channel(s)                  : 6 channels
    Channel layout              : L R C LFE Ls Rs
    Sampling rate               : 48.0 kHz
    Frame rate                  : 31.250 FPS (1536 SPF)
    Compression mode            : Lossy
    Stream size                 : 353 MiB (13%)
    Language                    : English
    Service kind                : Complete Main
    Default                     : No
    Forced                      : No

    Text
    ID                          : 4
    Format                      : PGS
    Muxing mode                 : zlib
    Codec ID                    : S_HDMV/PGS
    Codec ID/Info               : Picture based subtitle format used on BDs/HD-DVDs
    Duration                    : 1 h 16 min
    Bit rate                    : 33.4 kb/s
    Count of elements           : 1699
    Stream size                 : 18.2 MiB (1%)
    Language                    : Spanish
    Default                     : No
    Forced                      : No

    Menu
    00:00:00.000                : :00:00:00.000
    00:02:21.308                : :00:02:21.308
    00:06:29.389                : :00:06:29.389
    00:10:46.146                : :00:10:46.145
    00:14:31.204                : :00:14:31.204
    00:18:53.966                : :00:18:53.966
    00:20:32.732                : :00:20:32.731
    00:23:58.771                : :00:23:58.771
    00:27:20.806                : :00:27:20.806
    00:30:27.659                : :00:30:27.659
    00:33:22.167                : :00:33:22.167
    00:36:17.509                : :00:36:17.509
    00:39:53.391                : :00:39:53.391
    00:43:21.099                : :00:43:21.098
    00:46:19.944                : :00:46:19.944
    00:48:54.598                : :00:48:54.598
    00:52:02.953                : :00:52:02.953
    00:54:50.454                : :00:54:50.454
    00:56:57.080                : :00:56:57.080
    01:00:15.445                : :01:00:15.445
    01:03:45.488                : :01:03:45.488
    01:07:41.057                : :01:07:41.057
    01:11:12.101                : :01:11:12.101
    01:13:26.402                : :01:13:26.402

  • Peso: 2.69 GiB

Sinopsis

Ambientada en un pueblecito europeo en el siglo XIX, esta película de animación fotograma a fotograma cuenta la historia de Victor (a quien pone voz Johnny Depp), un joven que es llevado de repente al infierno, donde se casa con una misteriosa Novia Cadáver (con la voz de Helena Bonham Carter), mientras que su verdadera novia, Victoria (a quien pone voz Emily Watson) espera en el mundo de los vivos. A pesar de que la tierra de los muertos resulta ser más colorista que su estricta educación victoriana, Victor aprende que no hay nada en este mundo, ni en el siguiente, que pueda separarle de su único y verdadero amor. Es un cuento de optimismo, romance y una “otra vida” muy animada, contada con el clásico estilo Tim Burton.

Ficha técnica

Video trailer de la película

Enlaces de descarga

Rip de Bluray

Descargar El cadáver de la novia (2005) Full HD 1080p Latino – CMHDD




Aportes de DPeliculasHDmega la pass es:dpeliculashdmega.org Aportes de CinemaniaHD la pass es:cinemaniahdd.com
Guardado en : Animación , Fantasía , Romance

Películas relacionadas

descargar El cadáver de la novia (2005) Full HD 1080p Latino – CMHDD Full 1080p 1080p gratis, El cadáver de la novia (2005) Full HD 1080p Latino – CMHDD Full 1080p mega 1 link, El cadáver de la novia (2005) Full HD 1080p Latino – CMHDD Full 1080p pelicula completa, descargar El cadáver de la novia (2005) Full HD 1080p Latino – CMHDD Full 1080p gratis en mega.

El cadáver de la novia (2005) Full HD 1080p Latino – CMHDD pelicula full hd, El cadáver de la novia (2005) Full HD 1080p Latino – CMHDD mega latino, El cadáver de la novia (2005) Full HD 1080p Latino – CMHDD 4k latino, El cadáver de la novia (2005) Full HD 1080p Latino – CMHDD pelicula completa, El cadáver de la novia (2005) Full HD 1080p Latino – CMHDD descargar gratis, descargar El cadáver de la novia (2005) Full HD 1080p Latino – CMHDD pelicula latino, El cadáver de la novia (2005) Full HD 1080p Latino – CMHDD 1 link mega, El cadáver de la novia (2005) Full HD 1080p Latino – CMHDD 1 link google drive, El cadáver de la novia (2005) Full HD 1080p Latino – CMHDD hd 1080p latino.
Comentarios 0