×

¿Problemas para descargar con Mozilla, EDGE? Deshabilita la opción "Abrir vinculos en una pestaña nueva" tal como lo muestra ésta imagen.

El Caballero Verde (2021) PLACEBO Full HD 1080p Latino

922 vistas

Información de El Caballero Verde (2021) PLACEBO Full HD 1080p Latino

Datos de la película

  • Calidad: Full 1080p
  • Audio: Se especifica abajo de la Sinopsis
  • Subtitulos: Español Latino SRT- FORZADOS SRT
  • Resolución: 1920x1080p
  • Formato: MKV
  • Codec: H.264
  • Encoder: Melkor
  • Mediainfo: Clic para Mostrar Datos Ver
  • El Caballero Verde (2021) PLACEBO 1080p Latino.mkv
    Format                      : Matroska
    Format version              : Version 4
    File size                   : 8.67 GiB
    Duration                    : 2 h 9 min
    Overall bit rate mode       : Variable
    Overall bit rate            : 9 562 kb/s
    Movie name                  : The Green Knight (2021) CinemaniaHDD.Net
    Encoded date                : UTC 2022-01-08 03:34:53
    Writing application         : mkvmerge v56.1.0 ('My Friend') 64-bit
    Writing library             : libebml v1.4.2 + libmatroska v1.6.4
    Attachments                 : CINEMANIAHD.png

    Video
    ID                          : 1
    Format                      : AVC
    Format/Info                 : Advanced Video Codec
    Format profile              : High@L4.1
    Format settings             : CABAC / 4 Ref Frames
    Format settings, CABAC      : Yes
    Format settings, Reference  : 4 frames
    Codec ID                    : V_MPEG4/ISO/AVC
    Duration                    : 2 h 9 min
    Bit rate                    : 4 929 kb/s
    Width                       : 1 920 pixels
    Height                      : 1 080 pixels
    Display aspect ratio        : 16:9
    Frame rate mode             : Constant
    Frame rate                  : 23.976 (24000/1001) FPS
    Color space                 : YUV
    Chroma subsampling          : 4:2:0
    Bit depth                   : 8 bits
    Scan type                   : Progressive
    Bits/(Pixel*Frame)          : 0.099
    Stream size                 : 4.47 GiB (52%)
    Title                       : Full HD1080p [CinemaniaHDD]
    Writing library             : x264 core 163 r3059 b684ebe0
    Encoding settings           : cabac=1 / ref=4 / deblock=1:0:0 / analyse=0x3:0x133 / me=tesa / subme=11 / psy=1 / psy_rd=1.00:0.00 / mixed_ref=1 / me_range=24 / chroma_me=1 / trellis=2 / 8x8dct=1 / cqm=0 / deadzone=21,11 / fast_pskip=0 / chroma_qp_offset=-2 / threads=24 / lookahead_threads=6 / sliced_threads=0 / nr=0 / decimate=1 / interlaced=0 / bluray_compat=0 / constrained_intra=0 / bframes=16 / b_pyramid=2 / b_adapt=2 / b_bias=0 / direct=3 / weightb=1 / open_gop=0 / weightp=2 / keyint=240 / keyint_min=24 / scenecut=40 / intra_refresh=0 / rc_lookahead=60 / rc=crf / mbtree=1 / crf=18.0 / qcomp=0.60 / qpmin=0 / qpmax=69 / qpstep=4 / vbv_maxrate=62500 / vbv_bufsize=78125 / crf_max=0.0 / nal_hrd=none / filler=0 / ip_ratio=1.40 / aq=1:1.00
    Default                     : Yes
    Forced                      : Yes
    Color range                 : Limited
    Color primaries             : BT.709
    Transfer characteristics    : BT.709
    Matrix coefficients         : BT.709

    Audio #1
    ID                          : 2
    Format                      : AC-3
    Format/Info                 : Audio Coding 3
    Commercial name             : Dolby Digital
    Codec ID                    : A_AC3
    Duration                    : 2 h 9 min
    Bit rate mode               : Constant
    Bit rate                    : 448 kb/s
    Channel(s)                  : 6 channels
    Channel layout              : L R C LFE Ls Rs
    Sampling rate               : 48.0 kHz
    Frame rate                  : 31.250 FPS (1536 SPF)
    Compression mode            : Lossy
    Stream size                 : 416 MiB (5%)
    Title                       : Español Latino [CinemaniaHDD]
    Language                    : Spanish
    Service kind                : Complete Main
    Default                     : Yes
    Forced                      : Yes

    Audio #2
    ID                          : 3
    Format                      : MLP FBA 16-ch
    Format/Info                 : Meridian Lossless Packing FBA with 16-channel presentation
    Commercial name             : Dolby TrueHD with Dolby Atmos
    Codec ID                    : A_TRUEHD
    Duration                    : 2 h 9 min
    Bit rate mode               : Variable
    Bit rate                    : 3 476 kb/s
    Maximum bit rate            : 5 781 kb/s
    Channel(s)                  : 8 channels
    Channel layout              : L R C LFE Ls Rs Lb Rb
    Sampling rate               : 48.0 kHz
    Frame rate                  : 1 200.000 FPS (40 SPF)
    Compression mode            : Lossless
    Stream size                 : 3.15 GiB (36%)
    Title                       : Ingles-THD [CinemaniaHDD]
    Language                    : English
    Default                     : No
    Forced                      : No
    Number of dynamic objects   : 11
    Bed channel count           : 1 channel
    Bed channel configuration   : LFE

    Audio #3
    ID                          : 4
    Format                      : AC-3
    Format/Info                 : Audio Coding 3
    Commercial name             : Dolby Digital
    Format settings             : Dolby Surround EX
    Codec ID                    : A_AC3
    Duration                    : 2 h 9 min
    Bit rate mode               : Constant
    Bit rate                    : 640 kb/s
    Channel(s)                  : 6 channels
    Channel layout              : L R C LFE Ls Rs
    Sampling rate               : 48.0 kHz
    Frame rate                  : 31.250 FPS (1536 SPF)
    Compression mode            : Lossy
    Stream size                 : 594 MiB (7%)
    Title                       : Ingles-AC3 [CinemaniaHDD]
    Language                    : English
    Service kind                : Complete Main
    Default                     : No
    Forced                      : No

    Text #1
    ID                          : 5
    Format                      : UTF-8
    Codec ID                    : S_TEXT/UTF8
    Codec ID/Info               : UTF-8 Plain Text
    Duration                    : 1 h 59 min
    Bit rate                    : 0 b/s
    Count of elements           : 14
    Stream size                 : 308 Bytes (0%)
    Title                       : Forzados-SRT [CinemaniaHDD]
    Language                    : Spanish
    Default                     : Yes
    Forced                      : Yes

    Text #2
    ID                          : 6
    Format                      : UTF-8
    Codec ID                    : S_TEXT/UTF8
    Codec ID/Info               : UTF-8 Plain Text
    Duration                    : 2 h 4 min
    Bit rate                    : 21 b/s
    Count of elements           : 827
    Stream size                 : 19.5 KiB (0%)
    Title                       : Español-SRT [CinemaniaHDD]
    Language                    : Spanish
    Default                     : No
    Forced                      : No

    Text #3
    ID                          : 7
    Format                      : UTF-8
    Codec ID                    : S_TEXT/UTF8
    Codec ID/Info               : UTF-8 Plain Text
    Duration                    : 2 h 8 min
    Bit rate                    : 31 b/s
    Count of elements           : 1238
    Stream size                 : 29.6 KiB (0%)
    Title                       : Ingles [CinemaniaHDD]
    Language                    : English
    Default                     : No
    Forced                      : No

    Menu
    00:00:00.000                : A New Tale
    00:01:05.815                : Festive Spirit
    00:06:54.956                : Seated With the King
    00:11:24.725                : No Tale to Tell
    00:15:04.445                : Christmas Game
    00:18:47.375                : Challenge Accepted
    00:25:13.220                : ...a Too Quick Year
    00:28:53.606                : Held to the Light
    00:32:26.694                : Prayer and Guidance
    00:36:05.329                : The Journey Out
    00:41:46.504                : ...a Kindness
    00:45:56.294                : Tweren't Enough
    00:48:36.538                : Helpless
    00:54:26.096                : ...a Meeting With St. Winifred
    00:58:22.289                : Need My Head
    01:04:11.472                : ...an Interlude
    01:09:30.916                : Valley of Giants
    01:14:42.978                : Among Friends
    01:16:12.358                : ...an Exchange of Winnings
    01:22:58.974                : Green Conquers All
    01:30:42.145                : Secret Gift
    01:37:10.533                : ...a Beheading at the Green Chapel
    01:48:51.691                : The Voyage Home
    01:56:07.251                : King of Deceit
    02:04:31.630                : End Credits

  • Peso: 8.67 GiB

Sinopsis

Descargar El Caballero Verde (2021) PLACEBO Full HD 1080p Latino. Una aventura de fantasía épica basada en la eterna leyenda artúrica, The Green Knight cuenta la historia de Sir Gawain (Dev Patel), el temerario y testarudo sobrino del Rey Arturo, que se embarca en una atrevida búsqueda para enfrentarse al homónimo Caballero Verde, un gigantesco de piel esmeralda.

Español Latino AC3 5.1 WebDL – Ingles THD 7.1 & AC3 5.1 BD

Ficha técnica

Video trailer de la película

Enlaces de descarga

Rip de Bluray

Descargar El Caballero Verde (2021) PLACEBO Full HD 1080p Latino




Aportes de DPeliculasHDmega la pass es:dpeliculashdmega.org Aportes de CinemaniaHD la pass es:cinemaniahdd.com

Películas relacionadas

descargar El Caballero Verde (2021) PLACEBO Full HD 1080p Latino Full 1080p 1080p gratis, El Caballero Verde (2021) PLACEBO Full HD 1080p Latino Full 1080p mega 1 link, El Caballero Verde (2021) PLACEBO Full HD 1080p Latino Full 1080p pelicula completa, descargar El Caballero Verde (2021) PLACEBO Full HD 1080p Latino Full 1080p gratis en mega.

El Caballero Verde (2021) PLACEBO Full HD 1080p Latino pelicula full hd, El Caballero Verde (2021) PLACEBO Full HD 1080p Latino mega latino, El Caballero Verde (2021) PLACEBO Full HD 1080p Latino 4k latino, El Caballero Verde (2021) PLACEBO Full HD 1080p Latino pelicula completa, El Caballero Verde (2021) PLACEBO Full HD 1080p Latino descargar gratis, descargar El Caballero Verde (2021) PLACEBO Full HD 1080p Latino pelicula latino, El Caballero Verde (2021) PLACEBO Full HD 1080p Latino 1 link mega, El Caballero Verde (2021) PLACEBO Full HD 1080p Latino 1 link google drive, El Caballero Verde (2021) PLACEBO Full HD 1080p Latino hd 1080p latino.
Comentarios 0