×

¿Problemas para descargar con Mozilla, EDGE? Deshabilita la opción "Abrir vinculos en una pestaña nueva" tal como lo muestra ésta imagen.

El caballero de la Navidad (2019) NF WEB-DL 1080p HDR Latino

1.081 vistas

Información de El caballero de la Navidad (2019) NF WEB-DL 1080p HDR Latino

Datos de la película

  • Calidad: WEBDL
  • Audio: Español Latino E-AC3 5.1 Netflix - Ingles E-AC3 5.1 Netflix
  • Subtitulos: Español Latino SRT - Ingles SRT
  • Resolución: 1920x1080p
  • Formato: MKV
  • Codec: HEVC
  • Encoder: CinemaniaHD
  • Mediainfo: Clic para Mostrar Datos Ver
  • El caballero de la Navidad (2019) NF WEB-DL 1080p HDR Latino.mkv
    Format                      : Matroska
    Format version              : Version 4
    File size                   : 4.98 GiB
    Duration                    : 1 h 32 min
    Overall bit rate            : 7 690 kb/s
    Movie name                  : CinemaniaHDD.Net
    Encoded date                : UTC 2019-11-21 17:14:22
    Writing application         : mkvmerge v38.0.0 ('The Silent Type') 64-bit
    Writing library             : libebml v1.3.9 + libmatroska v1.5.2
    Attachments                 : CINEMANIAHD.png

    Video
    ID                          : 1
    Format                      : HEVC
    Format/Info                 : High Efficiency Video Coding
    Commercial name             : HDR10
    Format profile              : Main 10@L4@Main
    Codec ID                    : V_MPEGH/ISO/HEVC
    Duration                    : 1 h 31 min
    Bit rate                    : 5 698 kb/s
    Width                       : 1 920 pixels
    Height                      : 1 080 pixels
    Display aspect ratio        : 16:9
    Frame rate mode             : Constant
    Frame rate                  : 24.000 FPS
    Color space                 : YUV
    Chroma subsampling          : 4:2:0 (Type 2)
    Bit depth                   : 10 bits
    Bits/(Pixel*Frame)          : 0.114
    Stream size                 : 3.65 GiB (73%)
    Title                       : HDR 1080p [Web]
    Default                     : Yes
    Forced                      : Yes
    Color range                 : Limited
    Color primaries             : BT.2020
    Transfer characteristics    : PQ
    Matrix coefficients         : BT.2020 non-constant
    Mastering display color pri : Display P3
    Mastering display luminance : min: 0.0001 cd/m2, max: 1000 cd/m2
    Maximum Content Light Level : 10000 cd/m2
    Maximum Frame-Average Light : 1112 cd/m2

    Audio #1
    ID                          : 2
    Format                      : E-AC-3
    Format/Info                 : Enhanced AC-3
    Commercial name             : Dolby Digital Plus
    Codec ID                    : A_EAC3
    Duration                    : 1 h 32 min
    Bit rate mode               : Constant
    Bit rate                    : 640 kb/s
    Channel(s)                  : 6 channels
    Channel layout              : L R C LFE Ls Rs
    Sampling rate               : 48.0 kHz
    Frame rate                  : 31.250 FPS (1536 SPF)
    Compression mode            : Lossy
    Stream size                 : 424 MiB (8%)
    Title                       : DDP_5.1_Web_Esp
    Language                    : Spanish
    Service kind                : Complete Main
    Default                     : Yes
    Forced                      : Yes

    Audio #2
    ID                          : 3
    Format                      : E-AC-3 JOC
    Format/Info                 : Enhanced AC-3 with Joint Object Coding
    Commercial name             : Dolby Digital Plus with Dolby Atmos
    Codec ID                    : A_EAC3
    Duration                    : 1 h 32 min
    Bit rate mode               : Constant
    Bit rate                    : 768 kb/s
    Channel(s)                  : 6 channels
    Channel layout              : L R C LFE Ls Rs
    Sampling rate               : 48.0 kHz
    Frame rate                  : 31.250 FPS (1536 SPF)
    Compression mode            : Lossy
    Stream size                 : 509 MiB (10%)
    Title                       : DDP_5.1_Web_Eng
    Language                    : English
    Service kind                : Complete Main
    Default                     : No
    Forced                      : No
    Complexity index            : 16
    Number of dynamic objects   : 15
    Bed channel count           : 1 channel
    Bed channel configuration   : LFE

    Audio #3
    ID                          : 4
    Format                      : AC-3
    Format/Info                 : Audio Coding 3
    Commercial name             : Dolby Digital
    Codec ID                    : A_AC3
    Duration                    : 1 h 32 min
    Bit rate mode               : Constant
    Bit rate                    : 640 kb/s
    Channel(s)                  : 6 channels
    Channel layout              : L R C LFE Ls Rs
    Sampling rate               : 48.0 kHz
    Frame rate                  : 31.250 FPS (1536 SPF)
    Bit depth                   : 16 bits
    Compression mode            : Lossy
    Stream size                 : 424 MiB (8%)
    Title                       : AC3_5.1_Web_Esp
    Language                    : Spanish
    Service kind                : Complete Main
    Default                     : No
    Forced                      : No

    Text #1
    ID                          : 5
    Format                      : UTF-8
    Codec ID                    : S_TEXT/UTF8
    Codec ID/Info               : UTF-8 Plain Text
    Duration                    : 1 h 27 min
    Bit rate                    : 0 b/s
    Count of elements           : 20
    Stream size                 : 543 Bytes (0%)
    Title                       : Sub_Forzados
    Language                    : Spanish
    Default                     : Yes
    Forced                      : Yes

    Text #2
    ID                          : 6
    Format                      : UTF-8
    Codec ID                    : S_TEXT/UTF8
    Codec ID/Info               : UTF-8 Plain Text
    Duration                    : 1 h 27 min
    Bit rate                    : 61 b/s
    Count of elements           : 1354
    Stream size                 : 39.5 KiB (0%)
    Title                       : Sub_Esp
    Language                    : Spanish
    Default                     : No
    Forced                      : No

    Text #3
    ID                          : 7
    Format                      : UTF-8
    Codec ID                    : S_TEXT/UTF8
    Codec ID/Info               : UTF-8 Plain Text
    Duration                    : 1 h 27 min
    Bit rate                    : 70 b/s
    Count of elements           : 1440
    Stream size                 : 45.3 KiB (0%)
    Title                       : Sub_Eng
    Language                    : English
    Default                     : No
    Forced                      : No

  • Peso: 4.98 GiB

Sinopsis

Descargar El caballero de la Navidad (2019) NF WEB-DL 1080p HDR Latino. Un caballero medieval británico es transportado mágicamente al presente, donde se enamora perdidamente de una profesora de ciencias que ha perdido la esperanza en el amor.

Ficha técnica

Video trailer de la película

Enlaces de descarga

Rip de Bluray

Descargar El caballero de la Navidad (2019) NF WEB-DL 1080p HDR Latino




Aportes de DPeliculasHDmega la pass es:dpeliculashdmega.org Aportes de CinemaniaHD la pass es:cinemaniahdd.com

Películas relacionadas

descargar El caballero de la Navidad (2019) NF WEB-DL 1080p HDR Latino WEBDL 1080p gratis, El caballero de la Navidad (2019) NF WEB-DL 1080p HDR Latino WEBDL mega 1 link, El caballero de la Navidad (2019) NF WEB-DL 1080p HDR Latino WEBDL pelicula completa, descargar El caballero de la Navidad (2019) NF WEB-DL 1080p HDR Latino WEBDL gratis en mega.

El caballero de la Navidad (2019) NF WEB-DL 1080p HDR Latino pelicula full hd, El caballero de la Navidad (2019) NF WEB-DL 1080p HDR Latino mega latino, El caballero de la Navidad (2019) NF WEB-DL 1080p HDR Latino 4k latino, El caballero de la Navidad (2019) NF WEB-DL 1080p HDR Latino pelicula completa, El caballero de la Navidad (2019) NF WEB-DL 1080p HDR Latino descargar gratis, descargar El caballero de la Navidad (2019) NF WEB-DL 1080p HDR Latino pelicula latino, El caballero de la Navidad (2019) NF WEB-DL 1080p HDR Latino 1 link mega, El caballero de la Navidad (2019) NF WEB-DL 1080p HDR Latino 1 link google drive, El caballero de la Navidad (2019) NF WEB-DL 1080p HDR Latino hd 1080p latino.
Comentarios 0