×

¿Problemas para descargar con Mozilla, EDGE? Deshabilita la opción "Abrir vinculos en una pestaña nueva" tal como lo muestra ésta imagen.

El Banquero (2020) REMUX 1080p Latino

228 vistas

Información de El Banquero (2020) REMUX 1080p Latino

Datos de la película

  • Calidad: Full 1080p
  • Audio: Se especifica abajo de la Sinopsis
  • Subtitulos: Español Latino SRT- FORZADOS SRT
  • Resolución: 1920x1080p
  • Formato: MKV
  • Codec: H.264
  • Encoder: Melkor
  • Mediainfo: Clic para Mostrar Datos Ver
  • EL Banquero (2020) REMUX 1080p Latino.mkv
    Format                      : Matroska
    Format version              : Version 4
    File size                   : 19.1 GiB
    Duration                    : 2 h 0 min
    Overall bit rate mode       : Variable
    Overall bit rate            : 22.7 Mb/s
    Movie name                  : The Banker (2020) CinemaniaHDD.Net
    Encoded date                : UTC 2020-12-22 01:10:57
    Writing application         : mkvmerge v51.0.0 ('I Wish') 64-bit
    Writing library             : libebml v1.4.0 + libmatroska v1.6.2
    Attachments                 : CINEMANIAHD.png

    Video
    ID                          : 1
    ID in the original source m : 4113 (0x1011)
    Format                      : AVC
    Format/Info                 : Advanced Video Codec
    Format profile              : High@L4.1
    Format settings             : CABAC / 4 Ref Frames
    Format settings, CABAC      : Yes
    Format settings, Reference  : 4 frames
    Codec ID                    : V_MPEG4/ISO/AVC
    Duration                    : 2 h 0 min
    Bit rate mode               : Variable
    Bit rate                    : 17.4 Mb/s
    Maximum bit rate            : 18.0 Mb/s
    Width                       : 1 920 pixels
    Height                      : 1 080 pixels
    Display aspect ratio        : 16:9
    Frame rate mode             : Constant
    Frame rate                  : 24.000 FPS
    Color space                 : YUV
    Chroma subsampling          : 4:2:0
    Bit depth                   : 8 bits
    Scan type                   : Progressive
    Bits/(Pixel*Frame)          : 0.350
    Stream size                 : 14.7 GiB (77%)
    Title                       : REMUX HD1080p [CinemaniaHDD]
    Default                     : Yes
    Forced                      : Yes
    Original source medium      : Blu-ray

    Audio #1
    ID                          : 2
    Format                      : AC-3
    Format/Info                 : Audio Coding 3
    Commercial name             : Dolby Digital
    Codec ID                    : A_AC3
    Duration                    : 2 h 0 min
    Bit rate mode               : Constant
    Bit rate                    : 640 kb/s
    Channel(s)                  : 6 channels
    Channel layout              : L R C LFE Ls Rs
    Sampling rate               : 48.0 kHz
    Frame rate                  : 31.250 FPS (1536 SPF)
    Compression mode            : Lossy
    Stream size                 : 553 MiB (3%)
    Title                       : Español Latino [CinemaniaHDD]
    Language                    : Spanish
    Service kind                : Complete Main
    Default                     : Yes
    Forced                      : Yes

    Audio #2
    ID                          : 3
    ID in the original source m : 4352 (0x1100)
    Format                      : MLP FBA
    Format/Info                 : Meridian Lossless Packing FBA
    Commercial name             : Dolby TrueHD
    Codec ID                    : A_TRUEHD
    Duration                    : 2 h 0 min
    Bit rate mode               : Variable
    Bit rate                    : 3 135 kb/s
    Maximum bit rate            : 4 728 kb/s
    Channel(s)                  : 8 channels
    Channel layout              : L R C LFE Ls Rs Lb Rb
    Sampling rate               : 96.0 kHz
    Frame rate                  : 1 200.000 FPS (80 SPF)
    Compression mode            : Lossless
    Stream size                 : 2.65 GiB (14%)
    Title                       : Ingles THD [CinemaniaHDD]
    Language                    : English
    Default                     : No
    Forced                      : No
    Original source medium      : Blu-ray

    Audio #3
    ID                          : 4
    Format                      : E-AC-3
    Format/Info                 : Enhanced AC-3
    Commercial name             : Dolby Digital Plus
    Format profile              : Blu-ray Disc
    Codec ID                    : A_EAC3
    Duration                    : 2 h 0 min
    Bit rate mode               : Constant
    Bit rate                    : 768 kb/s
    Channel(s)                  : 8 channels
    Channel layout              : L R C LFE Ls Rs Lb Rb
    Sampling rate               : 48.0 kHz
    Frame rate                  : 31.250 FPS (1536 SPF)
    Compression mode            : Lossy
    Stream size                 : 664 MiB (3%)
    Title                       : Ingles DDP [CinemaniaHDD]
    Language                    : English
    Service kind                : Complete Main
    Default                     : No
    Forced                      : No

    Audio #4
    ID                          : 5
    ID in the original source m : 4352 (0x1100)
    Format                      : AC-3
    Format/Info                 : Audio Coding 3
    Commercial name             : Dolby Digital
    Codec ID                    : A_AC3
    Duration                    : 2 h 0 min
    Bit rate mode               : Constant
    Bit rate                    : 640 kb/s
    Channel(s)                  : 6 channels
    Channel layout              : L R C LFE Ls Rs
    Sampling rate               : 48.0 kHz
    Frame rate                  : 31.250 FPS (1536 SPF)
    Compression mode            : Lossy
    Stream size                 : 553 MiB (3%)
    Title                       : Ingles AC3 [CinemaniaHDD]
    Language                    : English
    Service kind                : Complete Main
    Default                     : No
    Forced                      : No
    Original source medium      : Blu-ray

    Text #1
    ID                          : 6
    Format                      : UTF-8
    Codec ID                    : S_TEXT/UTF8
    Codec ID/Info               : UTF-8 Plain Text
    Duration                    : 1 h 59 min
    Bit rate                    : 2 b/s
    Count of elements           : 57
    Stream size                 : 1.89 KiB (0%)
    Title                       : Forzados-SRT [CinemaniaHDD]
    Language                    : Spanish
    Default                     : Yes
    Forced                      : Yes

    Text #2
    ID                          : 7
    Format                      : UTF-8
    Codec ID                    : S_TEXT/UTF8
    Codec ID/Info               : UTF-8 Plain Text
    Duration                    : 2 h 0 min
    Bit rate                    : 72 b/s
    Count of elements           : 1828
    Stream size                 : 64.0 KiB (0%)
    Title                       : Español-SRT [CinemaniaHDD]
    Language                    : Spanish
    Default                     : No
    Forced                      : No

    Text #3
    ID                          : 8
    Format                      : UTF-8
    Codec ID                    : S_TEXT/UTF8
    Codec ID/Info               : UTF-8 Plain Text
    Duration                    : 1 h 53 min
    Bit rate                    : 74 b/s
    Count of elements           : 1751
    Stream size                 : 61.5 KiB (0%)
    Title                       : Ingles-SRT [CinemaniaHDD]
    Language                    : English
    Default                     : No
    Forced                      : No

    Menu
    00:00:00.000                : en:Chapter 01
    00:07:35.291                : en:Chapter 02
    00:14:07.041                : en:Chapter 03
    00:22:19.208                : en:Chapter 04
    00:27:45.458                : en:Chapter 05
    00:33:31.791                : en:Chapter 06
    00:37:09.833                : en:Chapter 07
    00:45:53.625                : en:Chapter 08
    00:54:35.416                : en:Chapter 09
    01:02:40.541                : en:Chapter 10
    01:07:26.125                : en:Chapter 11
    01:13:36.166                : en:Chapter 12
    01:17:12.875                : en:Chapter 13
    01:23:29.250                : en:Chapter 14
    01:32:51.041                : en:Chapter 15
    01:38:01.875                : en:Chapter 16
    01:42:03.125                : en:Chapter 17
    01:51:37.666                : en:Chapter 18

  • Peso: 19.1 GiB

Sinopsis

Descargar El Banquero (2020) REMUX 1080p Latino. Historia de Joe Morris (Jackson) y Bernard Garrett (Mackie), que en los años 50 se convirtieron en los dos primeros banqueros afroamericanos en los Estados Unidos.

Español Latino AC3 5.1 – Ingles TrueHD & EAC3 7.1 & AC3 5.1

Ficha técnica

  • Titulo original: The Banker
  • Fecha de lanzamiento: 06-03-2020 (United States of America)
  • Director: George Nolfi
  • Género: Drama, Remux

Video trailer de la película

Enlaces de descarga

Rip de Bluray

Descargar El Banquero (2020) REMUX 1080p Latino




Aportes de DPeliculasHDmega la pass es:dpeliculashdmega.org Aportes de CinemaniaHD la pass es:cinemaniahdd.com
Guardado en : Drama , Remux

Películas relacionadas

descargar El Banquero (2020) REMUX 1080p Latino Full 1080p 1080p gratis, El Banquero (2020) REMUX 1080p Latino Full 1080p mega 1 link, El Banquero (2020) REMUX 1080p Latino Full 1080p pelicula completa, descargar El Banquero (2020) REMUX 1080p Latino Full 1080p gratis en mega.

El Banquero (2020) REMUX 1080p Latino pelicula full hd, El Banquero (2020) REMUX 1080p Latino mega latino, El Banquero (2020) REMUX 1080p Latino 4k latino, El Banquero (2020) REMUX 1080p Latino pelicula completa, El Banquero (2020) REMUX 1080p Latino descargar gratis, descargar El Banquero (2020) REMUX 1080p Latino pelicula latino, El Banquero (2020) REMUX 1080p Latino 1 link mega, El Banquero (2020) REMUX 1080p Latino 1 link google drive, El Banquero (2020) REMUX 1080p Latino hd 1080p latino.
Comentarios 0