×

¿Problemas para descargar con Mozilla, EDGE? Deshabilita la opción "Abrir vinculos en una pestaña nueva" tal como lo muestra ésta imagen.

El Banquero (2020) HD 1080p Latino

276 vistas

Información de El Banquero (2020) HD 1080p Latino

Datos de la película

  • Calidad: 1080p
  • Audio: Se especifica abajo de la Sinopsis
  • Subtitulos: Español Latino SRT- FORZADOS SRT
  • Resolución: 1920x804p
  • Formato: MKV
  • Codec: H.264
  • Encoder: Melkor
  • Mediainfo: Clic para Mostrar Datos Ver
  • EL Banquero (2020) HD 1080p Latino-CMHDD.mkv
    Format                      : Matroska
    Format version              : Version 4
    File size                   : 3.84 GiB
    Duration                    : 2 h 0 min
    Overall bit rate            : 4 547 kb/s
    Movie name                  : The Banker (2020) CinemaniaHDD.Net
    Encoded date                : UTC 2020-12-22 04:02:25
    Writing application         : mkvmerge v51.0.0 ('I Wish') 64-bit
    Writing library             : libebml v1.4.0 + libmatroska v1.6.2
    Attachments                 : CINEMANIAHD.png

    Video
    ID                          : 1
    Format                      : AVC
    Format/Info                 : Advanced Video Codec
    Format profile              : High@L4.1
    Format settings             : CABAC / 5 Ref Frames
    Format settings, CABAC      : Yes
    Format settings, Reference  : 5 frames
    Codec ID                    : V_MPEG4/ISO/AVC
    Duration                    : 2 h 0 min
    Bit rate                    : 3 500 kb/s
    Width                       : 1 920 pixels
    Height                      : 804 pixels
    Display aspect ratio        : 2.40:1
    Frame rate mode             : Constant
    Frame rate                  : 24.000 FPS
    Color space                 : YUV
    Chroma subsampling          : 4:2:0
    Bit depth                   : 8 bits
    Scan type                   : Progressive
    Bits/(Pixel*Frame)          : 0.094
    Stream size                 : 2.92 GiB (76%)
    Title                       : HD1080p [CinemaniaHDD]
    Writing library             : x264 core 157 r2935 545de2f
    Encoding settings           : cabac=1 / ref=5 / deblock=1:-1:-1 / analyse=0x3:0x133 / me=umh / subme=9 / psy=1 / psy_rd=1.00:0.15 / mixed_ref=1 / me_range=16 / chroma_me=1 / trellis=2 / 8x8dct=1 / cqm=0 / deadzone=21,11 / fast_pskip=1 / chroma_qp_offset=-3 / threads=24 / lookahead_threads=2 / sliced_threads=0 / nr=0 / decimate=1 / interlaced=0 / bluray_compat=0 / constrained_intra=0 / bframes=3 / b_pyramid=2 / b_adapt=2 / b_bias=0 / direct=3 / weightb=1 / open_gop=0 / weightp=2 / keyint=240 / keyint_min=24 / scenecut=40 / intra_refresh=0 / rc_lookahead=60 / rc=abr / mbtree=1 / bitrate=3500 / ratetol=1.0 / qcomp=0.60 / qpmin=0 / qpmax=69 / qpstep=4 / vbv_maxrate=62500 / vbv_bufsize=78125 / nal_hrd=none / filler=0 / ip_ratio=1.40 / aq=1:1.00
    Default                     : Yes
    Forced                      : Yes
    Color range                 : Limited
    Color primaries             : BT.709
    Transfer characteristics    : BT.709
    Matrix coefficients         : BT.709

    Audio #1
    ID                          : 2
    Format                      : AC-3
    Format/Info                 : Audio Coding 3
    Commercial name             : Dolby Digital
    Codec ID                    : A_AC3
    Duration                    : 2 h 0 min
    Bit rate mode               : Constant
    Bit rate                    : 640 kb/s
    Channel(s)                  : 6 channels
    Channel layout              : L R C LFE Ls Rs
    Sampling rate               : 48.0 kHz
    Frame rate                  : 31.250 FPS (1536 SPF)
    Compression mode            : Lossy
    Delay relative to video     : -5 ms
    Stream size                 : 553 MiB (14%)
    Title                       : Español Latino [CinemaniaHDD]
    Language                    : Spanish
    Service kind                : Complete Main
    Default                     : Yes
    Forced                      : Yes

    Audio #2
    ID                          : 3
    Format                      : AC-3
    Format/Info                 : Audio Coding 3
    Commercial name             : Dolby Digital
    Codec ID                    : A_AC3
    Duration                    : 2 h 0 min
    Bit rate mode               : Constant
    Bit rate                    : 448 kb/s
    Channel(s)                  : 6 channels
    Channel layout              : L R C LFE Ls Rs
    Sampling rate               : 48.0 kHz
    Frame rate                  : 31.250 FPS (1536 SPF)
    Compression mode            : Lossy
    Delay relative to video     : -5 ms
    Stream size                 : 387 MiB (10%)
    Title                       : Ingles [CinemaniaHDD]
    Language                    : English
    Service kind                : Complete Main
    Default                     : No
    Forced                      : No

    Text #1
    ID                          : 4
    Format                      : UTF-8
    Codec ID                    : S_TEXT/UTF8
    Codec ID/Info               : UTF-8 Plain Text
    Duration                    : 1 h 59 min
    Bit rate                    : 2 b/s
    Count of elements           : 57
    Stream size                 : 1.89 KiB (0%)
    Title                       : Forzados-SRT [CinemaniaHDD]
    Language                    : Spanish
    Default                     : Yes
    Forced                      : Yes

    Text #2
    ID                          : 5
    Format                      : UTF-8
    Codec ID                    : S_TEXT/UTF8
    Codec ID/Info               : UTF-8 Plain Text
    Duration                    : 2 h 0 min
    Bit rate                    : 72 b/s
    Count of elements           : 1828
    Stream size                 : 64.0 KiB (0%)
    Title                       : Español-SRT [CinemaniaHDD]
    Language                    : Spanish
    Default                     : No
    Forced                      : No

    Text #3
    ID                          : 6
    Format                      : UTF-8
    Codec ID                    : S_TEXT/UTF8
    Codec ID/Info               : UTF-8 Plain Text
    Duration                    : 1 h 53 min
    Bit rate                    : 74 b/s
    Count of elements           : 1751
    Stream size                 : 61.5 KiB (0%)
    Title                       : Ingles-SRT [CinemaniaHDD]
    Language                    : English
    Default                     : No
    Forced                      : No

    Menu
    00:00:00.000                : en:Chapter 01
    00:07:35.291                : en:Chapter 02
    00:14:07.041                : en:Chapter 03
    00:22:19.208                : en:Chapter 04
    00:27:45.458                : en:Chapter 05
    00:33:31.791                : en:Chapter 06
    00:37:09.833                : en:Chapter 07
    00:45:53.625                : en:Chapter 08
    00:54:35.416                : en:Chapter 09
    01:02:40.541                : en:Chapter 10
    01:07:26.125                : en:Chapter 11
    01:13:36.166                : en:Chapter 12
    01:17:12.875                : en:Chapter 13
    01:23:29.250                : en:Chapter 14
    01:32:51.041                : en:Chapter 15
    01:38:01.875                : en:Chapter 16
    01:42:03.125                : en:Chapter 17
    01:51:37.666                : en:Chapter 18

  • Peso: 3.84 GiB

Sinopsis

Descargar El Banquero (2020) HD 1080p Latino. Historia de Joe Morris (Jackson) y Bernard Garrett (Mackie), que en los años 50 se convirtieron en los dos primeros banqueros afroamericanos en los Estados Unidos..

Español Latino AC3 5.1 – AC3 5.1

Ficha técnica

  • Titulo original: The Banker
  • Fecha de lanzamiento: 06-03-2020 (United States of America)
  • Director: George Nolfi
  • Género: Drama, HD 1080p

Video trailer de la película

Enlaces de descarga

Rip de Bluray

Descargar El Banquero (2020) HD 1080p Latino




Aportes de DPeliculasHDmega la pass es:dpeliculashdmega.org Aportes de CinemaniaHD la pass es:cinemaniahdd.com
Guardado en : Drama , HD 1080p

Películas relacionadas

descargar El Banquero (2020) HD 1080p Latino 1080p 1080p gratis, El Banquero (2020) HD 1080p Latino 1080p mega 1 link, El Banquero (2020) HD 1080p Latino 1080p pelicula completa, descargar El Banquero (2020) HD 1080p Latino 1080p gratis en mega.

El Banquero (2020) HD 1080p Latino pelicula full hd, El Banquero (2020) HD 1080p Latino mega latino, El Banquero (2020) HD 1080p Latino 4k latino, El Banquero (2020) HD 1080p Latino pelicula completa, El Banquero (2020) HD 1080p Latino descargar gratis, descargar El Banquero (2020) HD 1080p Latino pelicula latino, El Banquero (2020) HD 1080p Latino 1 link mega, El Banquero (2020) HD 1080p Latino 1 link google drive, El Banquero (2020) HD 1080p Latino hd 1080p latino.
Comentarios 0