×

¿Problemas para descargar con Mozilla, EDGE? Deshabilita la opción "Abrir vinculos en una pestaña nueva" tal como lo muestra ésta imagen.

El atracador perfecto (2022) PLACEBO Full HD 1080p Latino

299 vistas

Información de El atracador perfecto (2022) PLACEBO Full HD 1080p Latino

Datos de la película

  • Calidad: Full 1080p
  • Audio: Español Latino AC3 5.1 WEB-DL - Ingles DTS 5.1 BLURAY
  • Subtitulos: Español Latino SRT- FORZADOS SRT
  • Resolución: 1920x1080p
  • Formato: MKV
  • Codec: H.264
  • Encoder: Melkor
  • Mediainfo: Clic para Mostrar Datos Ver
  • El Atracador Perfecto (2022) PLACEBO 1080p Latino.mkv
    Format                      : Matroska
    Format version              : Version 4
    File size                   : 12.0 GiB
    Duration                    : 2 h 5 min
    Overall bit rate            : 13.6 Mb/s
    Movie name                  : Bandit (2022) CinemaniaHDD.Net
    Encoded date                : UTC 2023-04-13 15:40:45
    Writing application         : mkvmerge v56.1.0 ('My Friend') 64-bit
    Writing library             : libebml v1.4.2 + libmatroska v1.6.4
    Attachments                 : CINEMANIAHD.png
    Site                        : CinemaniaHDD.Net
    Uploader                    : Melkor

    Video
    ID                          : 1
    Format                      : AVC
    Format/Info                 : Advanced Video Codec
    Format profile              : High@L4.1
    Format settings             : CABAC / 4 Ref Frames
    Format settings, CABAC      : Yes
    Format settings, Reference  : 4 frames
    Codec ID                    : V_MPEG4/ISO/AVC
    Duration                    : 2 h 5 min
    Bit rate                    : 11.7 Mb/s
    Width                       : 1 920 pixels
    Height                      : 1 080 pixels
    Display aspect ratio        : 16:9
    Frame rate mode             : Constant
    Frame rate                  : 23.976 (24000/1001) FPS
    Color space                 : YUV
    Chroma subsampling          : 4:2:0
    Bit depth                   : 8 bits
    Scan type                   : Progressive
    Bits/(Pixel*Frame)          : 0.235
    Stream size                 : 10.3 GiB (85%)
    Title                       : Full HD1080p [CinemaniaHDD]
    Writing library             : x264 core 163 r3059 b684ebe0
    Encoding settings           : cabac=1 / ref=4 / deblock=1:0:0 / analyse=0x3:0x133 / me=tesa / subme=11 / psy=1 / psy_rd=1.00:0.00 / mixed_ref=1 / me_range=24 / chroma_me=1 / trellis=2 / 8x8dct=1 / cqm=0 / deadzone=21,11 / fast_pskip=0 / chroma_qp_offset=-2 / threads=24 / lookahead_threads=6 / sliced_threads=0 / nr=0 / decimate=1 / interlaced=0 / bluray_compat=0 / constrained_intra=0 / bframes=16 / b_pyramid=2 / b_adapt=2 / b_bias=0 / direct=3 / weightb=1 / open_gop=0 / weightp=2 / keyint=240 / keyint_min=24 / scenecut=40 / intra_refresh=0 / rc_lookahead=60 / rc=crf / mbtree=1 / crf=19.0 / qcomp=0.60 / qpmin=0 / qpmax=69 / qpstep=4 / vbv_maxrate=62500 / vbv_bufsize=78125 / crf_max=0.0 / nal_hrd=none / filler=0 / ip_ratio=1.40 / aq=1:1.00
    Default                     : Yes
    Forced                      : Yes
    Color range                 : Limited
    Color primaries             : BT.709
    Transfer characteristics    : BT.709
    Matrix coefficients         : BT.709

    Audio #1
    ID                          : 2
    Format                      : AC-3
    Format/Info                 : Audio Coding 3
    Commercial name             : Dolby Digital
    Codec ID                    : A_AC3
    Duration                    : 2 h 5 min
    Bit rate mode               : Constant
    Bit rate                    : 448 kb/s
    Channel(s)                  : 6 channels
    Channel layout              : L R C LFE Ls Rs
    Sampling rate               : 48.0 kHz
    Frame rate                  : 31.250 FPS (1536 SPF)
    Compression mode            : Lossy
    Stream size                 : 403 MiB (3%)
    Title                       : Español Latino [CinemaniaHDD]
    Language                    : Spanish
    Service kind                : Complete Main
    Default                     : Yes
    Forced                      : Yes

    Audio #2
    ID                          : 3
    Format                      : DTS
    Format/Info                 : Digital Theater Systems
    Codec ID                    : A_DTS
    Duration                    : 2 h 5 min
    Bit rate mode               : Constant
    Bit rate                    : 1 509 kb/s
    Channel(s)                  : 6 channels
    Channel layout              : C L R Ls Rs LFE
    Sampling rate               : 48.0 kHz
    Frame rate                  : 93.750 FPS (512 SPF)
    Bit depth                   : 24 bits
    Compression mode            : Lossy
    Stream size                 : 1.33 GiB (11%)
    Title                       : Ingles [CinemaniaHDD]
    Language                    : English
    Default                     : No
    Forced                      : No

    Text #1
    ID                          : 4
    Format                      : UTF-8
    Codec ID                    : S_TEXT/UTF8
    Codec ID/Info               : UTF-8 Plain Text
    Duration                    : 2 h 4 min
    Bit rate                    : 2 b/s
    Count of elements           : 69
    Stream size                 : 1.97 KiB (0%)
    Title                       : Forzados-SRT [CinemaniaHDD]
    Language                    : Spanish
    Default                     : Yes
    Forced                      : Yes

    Text #2
    ID                          : 5
    Format                      : UTF-8
    Codec ID                    : S_TEXT/UTF8
    Codec ID/Info               : UTF-8 Plain Text
    Duration                    : 2 h 4 min
    Bit rate                    : 54 b/s
    Count of elements           : 1859
    Stream size                 : 49.7 KiB (0%)
    Title                       : Español-SRT [CinemaniaHDD]
    Language                    : Spanish
    Default                     : No
    Forced                      : No

    Text #3
    ID                          : 6
    ID in the original source m : 4608 (0x1200)
    Format                      : PGS
    Muxing mode                 : zlib
    Codec ID                    : S_HDMV/PGS
    Codec ID/Info               : Picture based subtitle format used on BDs/HD-DVDs
    Duration                    : 1 h 58 min
    Bit rate                    : 43.8 kb/s
    Count of elements           : 4960
    Stream size                 : 37.0 MiB (0%)
    Title                       : Ingles [CinemaniaHDD]
    Language                    : English
    Default                     : No
    Forced                      : No
    Original source medium      : Blu-ray

    Menu
    00:00:00.000                : Chapter 01
    00:06:45.071                : Chapter 02
    00:14:55.311                : Chapter 03
    00:23:06.927                : Chapter 04
    00:27:51.920                : Chapter 05
    00:38:35.396                : Chapter 06
    00:44:27.665                : Chapter 07
    00:53:25.160                : Chapter 08
    00:59:51.713                : Chapter 09
    01:05:03.024                : Chapter 10
    01:14:24.585                : Chapter 11
    01:21:47.485                : Chapter 12
    01:30:05.191                : Chapter 13
    01:35:40.943                : Chapter 14
    01:44:18.460                : Chapter 15
    01:51:21.174                : Chapter 16

  • Peso: 12.0 GiB

Sinopsis

Descargar El atracador perfecto (2022) PLACEBO Full HD 1080p Latino. Basada en la historia real de Gilbert Galvan, un carismático y atrevido ladrón que fue conocido por sus más de 63 atracos a bancos y joyerías. Gilbert (Josh Duhamel), un expresidiario fugado de Estados Unidos bajo el alias Robert Whiteman, se enamora en Canadá de una mujer a la que no puede mantener, por lo que decide empezar a cometer a atracos. A medida que se vuelve adicto a la adrenalina, la peligrosidad de sus robos aumenta, especialmente cuando se alía con Tommy Key (Mel Gibson), un famoso gangster que le convencerá para cometer los mayores atracos de la historia. La creciente notoriedad de los robos llama la atención del Detective Syndes, lo que dará pie a un juego del gato y el ratón en el que intentarán burlarse entre sí en una vibrante persecución.

Ficha técnica

Video trailer de la película

Enlaces de descarga

Rip de Bluray

Descargar El atracador perfecto (2022) PLACEBO Full HD 1080p Latino




Aportes de DPeliculasHDmega la pass es:dpeliculashdmega.org Aportes de CinemaniaHD la pass es:cinemaniahdd.com Aportes recientes:cinemaniahdd.net

Películas relacionadas

  • The Chosen (2024) Temorada 4 WEB-DL 1080p Latino

    The Chosen (2024) Temorada 4 WEB-DL 1080p Latino

    2019
    The Chosen (2024) Temorada 4 WEB-DL 1080p Latino

    0h 43m 2019

    Por primera vez, la historia más grande jamás contada se presenta en una serie de varias temporadas....

    Director: Dallas Jenkins

    Género: Drama

    Actores: Yasmine Al-Bustami

  • Tiburón (1975) REMUX 1080p Latino-CMHDD

    Tiburón (1975) REMUX 1080p Latino-CMHDD

    1975
    Tiburón (1975) REMUX 1080p Latino-CMHDD

    2h 4m 1975

    Descargar Tiburón (1975) REMUX 1080p Latino-CMHDD. En la costa de un pequeño pueblo del Este de Estados...

    Director: Tom Joyner

    Género: Aventura

    Actores: Ted Grossman

descargar El atracador perfecto (2022) PLACEBO Full HD 1080p Latino Full 1080p 1080p gratis, El atracador perfecto (2022) PLACEBO Full HD 1080p Latino Full 1080p mega 1 link, El atracador perfecto (2022) PLACEBO Full HD 1080p Latino Full 1080p pelicula completa, descargar El atracador perfecto (2022) PLACEBO Full HD 1080p Latino Full 1080p gratis en mega.

El atracador perfecto (2022) PLACEBO Full HD 1080p Latino pelicula full hd, El atracador perfecto (2022) PLACEBO Full HD 1080p Latino mega latino, El atracador perfecto (2022) PLACEBO Full HD 1080p Latino 4k latino, El atracador perfecto (2022) PLACEBO Full HD 1080p Latino pelicula completa, El atracador perfecto (2022) PLACEBO Full HD 1080p Latino descargar gratis, descargar El atracador perfecto (2022) PLACEBO Full HD 1080p Latino pelicula latino, El atracador perfecto (2022) PLACEBO Full HD 1080p Latino 1 link mega, El atracador perfecto (2022) PLACEBO Full HD 1080p Latino 1 link google drive, El atracador perfecto (2022) PLACEBO Full HD 1080p Latino hd 1080p latino.
Comentarios 0