×

¿Problemas para descargar con Mozilla, EDGE? Deshabilita la opción "Abrir vinculos en una pestaña nueva" tal como lo muestra ésta imagen.

El Asesino Sin Rostro (2020) Temporada 1 AMZN WEB-DL 1080p Latino

425 vistas

Información de El Asesino Sin Rostro (2020) Temporada 1 AMZN WEB-DL 1080p Latino

Datos de la película

  • Calidad: WEBDL
  • Audio: Español Latino AC3 2.0 WEB-DL - Ingles AC3 5.1 WEB-DL
  • Subtitulos: Español Latino SRT- FORZADOS SRT
  • Resolución: 1920x1080
  • Formato: MKV
  • Codec: H.264
  • Encoder: cinemaniahdd
  • Mediainfo: Clic para Mostrar Datos Ver
  • El Asesino Sin Rostro T01E01 AMZN WEB-DL 1080p Latino [CNMNHDD].mkv
    Format                      : Matroska
    Format version              : Version 4
    File size                   : 3.62 GiB
    Duration                    : 57 min 45 s
    Overall bit rate            : 8 985 kb/s
    Movie name                  : El Asesino Sin Rostro T01E01 - CinemaniaHDD.Net
    Encoded date                : UTC 2020-06-30 21:02:53
    Writing application         : mkvmerge v46.0.0 ('No Deeper Escape') 64-bit
    Writing library             : libebml v1.3.10 + libmatroska v1.5.2

    Video
    ID                          : 1
    Format                      : AVC
    Format/Info                 : Advanced Video Codec
    Format profile              : High@L4
    Format settings             : CABAC / 4 Ref Frames
    Format settings, CABAC      : Yes
    Format settings, Reference  : 4 frames
    Codec ID                    : V_MPEG4/ISO/AVC
    Duration                    : 57 min 45 s
    Bit rate mode               : Constant
    Bit rate                    : 8 086 kb/s
    Nominal bit rate            : 10 000 kb/s
    Width                       : 1 920 pixels
    Height                      : 1 080 pixels
    Display aspect ratio        : 16:9
    Frame rate mode             : Constant
    Frame rate                  : 23.976 (24000/1001) FPS
    Color space                 : YUV
    Chroma subsampling          : 4:2:0
    Bit depth                   : 8 bits
    Scan type                   : Progressive
    Bits/(Pixel*Frame)          : 0.163
    Stream size                 : 3.26 GiB (90%)
    Title                       : CinemaniaHDD
    Default                     : Yes
    Forced                      : No
    Color range                 : Limited
    Color primaries             : BT.709
    Transfer characteristics    : BT.709
    Matrix coefficients         : BT.709

    Audio #1
    ID                          : 2
    Format                      : AC-3
    Format/Info                 : Audio Coding 3
    Commercial name             : Dolby Digital
    Codec ID                    : A_AC3
    Duration                    : 57 min 45 s
    Bit rate mode               : Constant
    Bit rate                    : 256 kb/s
    Channel(s)                  : 2 channels
    Channel layout              : L R
    Sampling rate               : 48.0 kHz
    Frame rate                  : 31.250 FPS (1536 SPF)
    Compression mode            : Lossy
    Stream size                 : 106 MiB (3%)
    Title                       : Español latino [CinemaniaHDD]
    Language                    : Spanish
    Service kind                : Complete Main
    Default                     : Yes
    Forced                      : No

    Audio #2
    ID                          : 3
    Format                      : E-AC-3
    Format/Info                 : Enhanced AC-3
    Commercial name             : Dolby Digital Plus
    Codec ID                    : A_EAC3
    Duration                    : 57 min 45 s
    Bit rate mode               : Constant
    Bit rate                    : 640 kb/s
    Channel(s)                  : 6 channels
    Channel layout              : L R C LFE Ls Rs
    Sampling rate               : 48.0 kHz
    Frame rate                  : 31.250 FPS (1536 SPF)
    Compression mode            : Lossy
    Delay relative to video     : 16 ms
    Stream size                 : 264 MiB (7%)
    Title                       : Inglés [CinemaniaHDD]
    Language                    : English
    Service kind                : Complete Main
    Default                     : No
    Forced                      : No

    Text #1
    ID                          : 4
    Format                      : UTF-8
    Codec ID                    : S_TEXT/UTF8
    Codec ID/Info               : UTF-8 Plain Text
    Duration                    : 48 min 35 s
    Bit rate                    : 0 b/s
    Count of elements           : 6
    Stream size                 : 169 Bytes (0%)
    Title                       : Forzados [CinemaniaHDD]
    Language                    : Spanish
    Default                     : Yes
    Forced                      : Yes

    Text #2
    ID                          : 5
    Format                      : UTF-8
    Codec ID                    : S_TEXT/UTF8
    Codec ID/Info               : UTF-8 Plain Text
    Duration                    : 54 min 55 s
    Bit rate                    : 87 b/s
    Count of elements           : 927
    Stream size                 : 35.2 KiB (0%)
    Title                       : Español latino [CinemaniaHDD]
    Language                    : Spanish
    Default                     : No
    Forced                      : No

    Text #3
    ID                          : 6
    Format                      : UTF-8
    Codec ID                    : S_TEXT/UTF8
    Codec ID/Info               : UTF-8 Plain Text
    Duration                    : 55 min 15 s
    Bit rate                    : 105 b/s
    Count of elements           : 1116
    Stream size                 : 42.7 KiB (0%)
    Title                       : Inglés [CinemaniaHDD]
    Language                    : English
    Default                     : No
    Forced                      : No

     

  • Peso: 3.62 GiB --- 3 CAPITULOS AGREGADOS

Sinopsis

La escritora Michelle McNamara, autora de True Crime Diary, su blog sobre crímenes sin resolver, encuentra una nueva obsesión en el caso del «Violador Del Área Este», responsable de más de 50 violaciones y 12 asesinatos en California en los 70 y 80. Hoy, la familia y amigos más cercanos de Michelle reflexionan sobre su talento para traer historias de crímenes reales a la vida.

3 CAPITULOS AGREGADOS

Ficha técnica

Video trailer de la película

Enlaces de descarga

Rip de Bluray

Descargar El Asesino Sin Rostro (2020) Temporada 1 AMZN WEB-DL 1080p Latino




Aportes de DPeliculasHDmega la pass es:dpeliculashdmega.org Aportes de CinemaniaHD la pass es:cinemaniahdd.com
Guardado en : Documental , HBO , Series

Películas relacionadas

descargar El Asesino Sin Rostro (2020) Temporada 1 AMZN WEB-DL 1080p Latino WEBDL 1080p gratis, El Asesino Sin Rostro (2020) Temporada 1 AMZN WEB-DL 1080p Latino WEBDL mega 1 link, El Asesino Sin Rostro (2020) Temporada 1 AMZN WEB-DL 1080p Latino WEBDL serie completa, descargar El Asesino Sin Rostro (2020) Temporada 1 AMZN WEB-DL 1080p Latino WEBDL gratis en mega.

El Asesino Sin Rostro (2020) Temporada 1 AMZN WEB-DL 1080p Latino pelicula full hd, El Asesino Sin Rostro (2020) Temporada 1 AMZN WEB-DL 1080p Latino mega latino, El Asesino Sin Rostro (2020) Temporada 1 AMZN WEB-DL 1080p Latino 4k latino, El Asesino Sin Rostro (2020) Temporada 1 AMZN WEB-DL 1080p Latino pelicula completa, El Asesino Sin Rostro (2020) Temporada 1 AMZN WEB-DL 1080p Latino descargar gratis, descargar El Asesino Sin Rostro (2020) Temporada 1 AMZN WEB-DL 1080p Latino pelicula latino, El Asesino Sin Rostro (2020) Temporada 1 AMZN WEB-DL 1080p Latino 1 link mega, El Asesino Sin Rostro (2020) Temporada 1 AMZN WEB-DL 1080p Latino 1 link google drive, El Asesino Sin Rostro (2020) Temporada 1 AMZN WEB-DL 1080p Latino hd 1080p latino.
Comentarios 0