×

¿Problemas para descargar con Mozilla, EDGE? Deshabilita la opción "Abrir vinculos en una pestaña nueva" tal como lo muestra ésta imagen.

El asesino perfecto (2022) REMUX 1080p Latino

25 vistas

Información de El asesino perfecto (2022) REMUX 1080p Latino

Datos de la película

  • Calidad: Full 1080p
  • Audio: Español Latino AC3 5.1 WEB-DL - Ingles DTS 5.1 BLURAY
  • Subtitulos: Español Latino SRT- FORZADOS SRT
  • Resolución: 1920x1080p
  • Formato: MKV
  • Codec: H.264
  • Encoder: Melkor
  • Mediainfo: Clic para Mostrar Datos Ver
  • El Asesino Perfecto (2022) REMUX 1080p Latino.mkv
    Format                      : Matroska
    Format version              : Version 4
    File size                   : 18.9 GiB
    Duration                    : 1 h 30 min
    Overall bit rate mode       : Variable
    Overall bit rate            : 29.8 Mb/s
    Movie name                  : The Enforcer (2022) CinemaniaHDD.Net
    Encoded date                : UTC 2023-01-12 21:19:55
    Writing application         : mkvmerge v56.1.0 ('My Friend') 64-bit
    Writing library             : libebml v1.4.2 + libmatroska v1.6.4
    Attachments                 : CINEMANIAHD.png

    Video
    ID                          : 1
    Format                      : AVC
    Format/Info                 : Advanced Video Codec
    Format profile              : High@L4.1
    Format settings             : CABAC / 4 Ref Frames
    Format settings, CABAC      : Yes
    Format settings, Reference  : 4 frames
    Format settings, GOP        : M=3, N=12
    Codec ID                    : V_MPEG4/ISO/AVC
    Duration                    : 1 h 30 min
    Bit rate mode               : Variable
    Bit rate                    : 25.6 Mb/s
    Maximum bit rate            : 32.8 Mb/s
    Width                       : 1 920 pixels
    Height                      : 1 080 pixels
    Display aspect ratio        : 16:9
    Frame rate mode             : Constant
    Frame rate                  : 23.976 (24000/1001) FPS
    Standard                    : NTSC
    Color space                 : YUV
    Chroma subsampling          : 4:2:0
    Bit depth                   : 8 bits
    Scan type                   : Progressive
    Bits/(Pixel*Frame)          : 0.515
    Stream size                 : 16.2 GiB (86%)
    Title                       : REMUX HD1080p [CinemaniaHDD]
    Default                     : Yes
    Forced                      : Yes
    Color range                 : Limited
    Color primaries             : BT.709
    Transfer characteristics    : BT.709
    Matrix coefficients         : BT.709

    Audio #1
    ID                          : 2
    Format                      : AC-3
    Format/Info                 : Audio Coding 3
    Commercial name             : Dolby Digital
    Codec ID                    : A_AC3
    Duration                    : 1 h 30 min
    Bit rate mode               : Constant
    Bit rate                    : 448 kb/s
    Channel(s)                  : 6 channels
    Channel layout              : L R C LFE Ls Rs
    Sampling rate               : 48.0 kHz
    Frame rate                  : 31.250 FPS (1536 SPF)
    Compression mode            : Lossy
    Stream size                 : 290 MiB (2%)
    Title                       : Español Latino [CinemaniaHDD]
    Language                    : Spanish
    Service kind                : Complete Main
    Default                     : Yes
    Forced                      : Yes

    Audio #2
    ID                          : 3
    Format                      : DTS XLL
    Format/Info                 : Digital Theater Systems
    Commercial name             : DTS-HD Master Audio
    Codec ID                    : A_DTS
    Duration                    : 1 h 30 min
    Bit rate mode               : Variable
    Bit rate                    : 3 682 kb/s
    Channel(s)                  : 6 channels
    Channel layout              : C L R Ls Rs LFE
    Sampling rate               : 48.0 kHz
    Frame rate                  : 93.750 FPS (512 SPF)
    Bit depth                   : 24 bits
    Compression mode            : Lossless
    Stream size                 : 2.33 GiB (12%)
    Title                       : Ingles [CinemaniaHDD]
    Language                    : English
    Default                     : No
    Forced                      : No

    Text #1
    ID                          : 4
    Format                      : UTF-8
    Codec ID                    : S_TEXT/UTF8
    Codec ID/Info               : UTF-8 Plain Text
    Duration                    : 12 min 42 s
    Bit rate                    : 1 b/s
    Count of elements           : 6
    Stream size                 : 172 Bytes (0%)
    Title                       : Forzados-SRT [CinemaniaHDD]
    Language                    : Spanish
    Default                     : Yes
    Forced                      : Yes

    Text #2
    ID                          : 5
    Format                      : UTF-8
    Codec ID                    : S_TEXT/UTF8
    Codec ID/Info               : UTF-8 Plain Text
    Duration                    : 1 h 22 min
    Bit rate                    : 37 b/s
    Count of elements           : 841
    Stream size                 : 22.4 KiB (0%)
    Title                       : Español-SRT [CinemaniaHDD]
    Language                    : Spanish
    Default                     : No
    Forced                      : No

    Text #3
    ID                          : 6
    Format                      : PGS
    Muxing mode                 : zlib
    Codec ID                    : S_HDMV/PGS
    Codec ID/Info               : Picture based subtitle format used on BDs/HD-DVDs
    Duration                    : 1 h 24 min
    Bit rate                    : 57.0 kb/s
    Count of elements           : 1811
    Stream size                 : 34.6 MiB (0%)
    Title                       : Ingles [CinemaniaHDD]
    Language                    : English
    Default                     : No
    Forced                      : No

    Menu
    00:00:00.000                : BALL OF LIGHT
    00:06:00.193                : WANT TO DANCE?
    00:14:38.836                : NO SPACE FOR MERCY
    00:20:22.263                : I'M VEGAN
    00:27:36.822                : FIRE
    00:34:45.750                : ENOUGH!
    00:43:15.718                : MET A GIRL
    00:48:47.633                : JUST A BOY
    00:54:50.579                : TAKE A SEAT
    01:03:54.706                : A MONEY FACTORY
    01:16:57.238                : HELP ME
    01:23:34.718                : END CREDITS

  • Peso: 18.9 GiB

Sinopsis

Descargar El asesino perfecto (2022) REMUX 1080p Latino. Con Antonio Banderas. Un ejecutor de la mafia debe sacrificarlo todo e ir en contra de su propia organización cuando descubre que su jefe está involucrado en el tráfico de mujeres. Hará cualquier cosa para salvar a una joven y encontrar su redención.

Ficha técnica

Video trailer de la película

Enlaces de descarga

Rip de Bluray

Descargar El asesino perfecto (2022) REMUX 1080p Latino




Aportes de DPeliculasHDmega la pass es:dpeliculashdmega.org Aportes de CinemaniaHD la pass es:cinemaniahdd.com
Guardado en : Action , Drama , Remux , Thriller

Películas relacionadas

  • Corazón de tinta (2008) REMUX 1080p Latino

    Corazón de tinta (2008) REMUX 1080p Latino

    2008
    Corazón de tinta (2008) REMUX 1080p Latino

    1h 46m 2008

    Descargar Corazón de tinta (2008) REMUX 1080p Latino. Mortimer “Mo” Folchart y su hija de 12 años,...

    Director: Sharon Mansfield

    Género: Aventura

    Actores: Tereza Srbová

  • Juego de espías (2001) REMUX 1080p Latino

    Juego de espías (2001) REMUX 1080p Latino

    2001
    Juego de espías (2001) REMUX 1080p Latino

    1h 55m 2001

    Descargar Juego de espías (2001) REMUX 1080p Latino. El día de su jubilación, el veterano agente de...

    Director: Tony Scott

    Género: Acción

    Actores: Zsolt Zágoni

  • Hombre de familia (2000) REMUX 1080p Latino

    Hombre de familia (2000) REMUX 1080p Latino

    2000
    Hombre de familia (2000) REMUX 1080p Latino

    2h 1m 2000

    Descargar Hombre de familia (2000) REMUX 1080p Latino. Jack Campbell es un egocéntrico broker de Wall...

    Director: Robert Schroer

    Género: Comedia

    Actores: Wass Stevens

descargar El asesino perfecto (2022) REMUX 1080p Latino Full 1080p 1080p gratis, El asesino perfecto (2022) REMUX 1080p Latino Full 1080p mega 1 link, El asesino perfecto (2022) REMUX 1080p Latino Full 1080p pelicula completa, descargar El asesino perfecto (2022) REMUX 1080p Latino Full 1080p gratis en mega.

El asesino perfecto (2022) REMUX 1080p Latino pelicula full hd, El asesino perfecto (2022) REMUX 1080p Latino mega latino, El asesino perfecto (2022) REMUX 1080p Latino 4k latino, El asesino perfecto (2022) REMUX 1080p Latino pelicula completa, El asesino perfecto (2022) REMUX 1080p Latino descargar gratis, descargar El asesino perfecto (2022) REMUX 1080p Latino pelicula latino, El asesino perfecto (2022) REMUX 1080p Latino 1 link mega, El asesino perfecto (2022) REMUX 1080p Latino 1 link google drive, El asesino perfecto (2022) REMUX 1080p Latino hd 1080p latino.
Comentarios 0