×

¿Problemas para descargar con Mozilla, EDGE? Deshabilita la opción "Abrir vinculos en una pestaña nueva" tal como lo muestra ésta imagen.

El Ascensor (2021) AMZN WEB-DL 1080p Latino

272 vistas

Información de El Ascensor (2021) AMZN WEB-DL 1080p Latino

Datos de la película

  • Calidad: WEBDL
  • Audio: Español Latino E-AC3 5.1 AMAZON - Ingles E-AC3 5.1 AMAZON
  • Subtitulos: Español Latino SRT- FORZADOS SRT
  • Resolución: 1920x1040
  • Formato: MKV
  • Codec: H.264
  • Encoder: cinemaniahdd
  • Mediainfo: Clic para Mostrar Datos Ver
  • El Ascensor (2021) AMZN WEB-DL 1080p Latino [CNMNHDD].mkv
    Format                      : Matroska
    Format version              : Version 4
    File size                   : 4.22 GiB
    Duration                    : 1 h 10 min
    Overall bit rate            : 8 608 kb/s
    Movie name                  : El Ascensor (2020) - CinemaniaHDD.Net
    Encoded date                : UTC 2021-01-15 02:57:14
    Writing application         : mkvmerge v51.0.0 ('I Wish') 64-bit
    Writing library             : libebml v1.4.0 + libmatroska v1.6.2

    Video
    ID                          : 1
    Format                      : AVC
    Format/Info                 : Advanced Video Codec
    Format profile              : High@L4
    Format settings             : CABAC / 4 Ref Frames
    Format settings, CABAC      : Yes
    Format settings, Reference  : 4 frames
    Codec ID                    : V_MPEG4/ISO/AVC
    Duration                    : 1 h 10 min
    Bit rate mode               : Constant
    Bit rate                    : 6 685 kb/s
    Nominal bit rate            : 10 000 kb/s
    Width                       : 1 920 pixels
    Height                      : 1 040 pixels
    Display aspect ratio        : 1.85:1
    Frame rate mode             : Constant
    Frame rate                  : 23.976 (24000/1001) FPS
    Color space                 : YUV
    Chroma subsampling          : 4:2:0
    Bit depth                   : 8 bits
    Scan type                   : Progressive
    Bits/(Pixel*Frame)          : 0.140
    Stream size                 : 3.27 GiB (78%)
    Title                       : CinemaniaHDD
    Default                     : Yes
    Forced                      : No
    Color range                 : Limited
    Color primaries             : BT.709
    Transfer characteristics    : BT.709
    Matrix coefficients         : BT.709

    Audio #1
    ID                          : 2
    Format                      : AC-3
    Format/Info                 : Audio Coding 3
    Commercial name             : Dolby Digital
    Codec ID                    : A_AC3
    Duration                    : 1 h 10 min
    Bit rate mode               : Constant
    Bit rate                    : 640 kb/s
    Channel(s)                  : 6 channels
    Channel layout              : L R C LFE Ls Rs
    Sampling rate               : 48.0 kHz
    Frame rate                  : 31.250 FPS (1536 SPF)
    Compression mode            : Lossy
    Stream size                 : 321 MiB (7%)
    Title                       : Español latino [CinemaniaHDD]
    Language                    : Spanish
    Service kind                : Complete Main
    Default                     : Yes
    Forced                      : No

    Audio #2
    ID                          : 3
    Format                      : E-AC-3
    Format/Info                 : Enhanced AC-3
    Commercial name             : Dolby Digital Plus
    Codec ID                    : A_EAC3
    Duration                    : 1 h 10 min
    Bit rate mode               : Constant
    Bit rate                    : 640 kb/s
    Channel(s)                  : 6 channels
    Channel layout              : L R C LFE Ls Rs
    Sampling rate               : 48.0 kHz
    Frame rate                  : 31.250 FPS (1536 SPF)
    Compression mode            : Lossy
    Stream size                 : 321 MiB (7%)
    Title                       : Español latino [CinemaniaHDD]
    Language                    : Spanish
    Service kind                : Complete Main
    Default                     : No
    Forced                      : No

    Audio #3
    ID                          : 4
    Format                      : E-AC-3
    Format/Info                 : Enhanced AC-3
    Commercial name             : Dolby Digital Plus
    Codec ID                    : A_EAC3
    Duration                    : 1 h 10 min
    Bit rate mode               : Constant
    Bit rate                    : 640 kb/s
    Channel(s)                  : 6 channels
    Channel layout              : L R C LFE Ls Rs
    Sampling rate               : 48.0 kHz
    Frame rate                  : 31.250 FPS (1536 SPF)
    Compression mode            : Lossy
    Stream size                 : 321 MiB (7%)
    Title                       : Inglés [CinemaniaHDD]
    Language                    : English
    Service kind                : Complete Main
    Default                     : No
    Forced                      : No

    Text #1
    ID                          : 5
    Format                      : UTF-8
    Codec ID                    : S_TEXT/UTF8
    Codec ID/Info               : UTF-8 Plain Text
    Duration                    : 1 h 5 min
    Bit rate                    : 81 b/s
    Count of elements           : 1196
    Stream size                 : 39.1 KiB (0%)
    Title                       : Español latino [CC] [CinemaniaHDD]
    Language                    : Spanish
    Default                     : No
    Forced                      : No

    Text #2
    ID                          : 6
    Format                      : UTF-8
    Codec ID                    : S_TEXT/UTF8
    Codec ID/Info               : UTF-8 Plain Text
    Duration                    : 1 h 4 min
    Bit rate                    : 61 b/s
    Count of elements           : 939
    Stream size                 : 29.3 KiB (0%)
    Title                       : Portugués [CC] [CinemaniaHDD]
    Language                    : Portuguese
    Default                     : No
    Forced                      : No

    Text #3
    ID                          : 7
    Format                      : UTF-8
    Codec ID                    : S_TEXT/UTF8
    Codec ID/Info               : UTF-8 Plain Text
    Duration                    : 1 h 4 min
    Bit rate                    : 65 b/s
    Count of elements           : 939
    Stream size                 : 31.0 KiB (0%)
    Title                       : Inglés [CC] [CinemaniaHDD]
    Language                    : English
    Default                     : No
    Forced                      : No

     

  • Peso: 4.22 GiB

Sinopsis

En apariencia Sito y Ana son una pareja feliz. Cuando Sito huye de una pelea, Ana le sigue al ascensor. Discuten hasta llegar al piso 0, pero en lugar de salir, vuelven al piso 10 y se repite la misma discusión. Están atrapados en un bucle espacio temporal. Sito es consciente, pero Ana no, así que debe convencerla de lo que pasa. Para escapar, primero tendrán que resolver sus problemas de pareja.

Ficha técnica

Video trailer de la película

Enlaces de descarga

Rip de Bluray

Descargar El Ascensor (2021) AMZN WEB-DL 1080p Latino




Aportes de DPeliculasHDmega la pass es:dpeliculashdmega.org Aportes de CinemaniaHD la pass es:cinemaniahdd.com
Guardado en : Ciencia ficción , Romance

Películas relacionadas

descargar El Ascensor (2021) AMZN WEB-DL 1080p Latino WEBDL 1080p gratis, El Ascensor (2021) AMZN WEB-DL 1080p Latino WEBDL mega 1 link, El Ascensor (2021) AMZN WEB-DL 1080p Latino WEBDL pelicula completa, descargar El Ascensor (2021) AMZN WEB-DL 1080p Latino WEBDL gratis en mega.

El Ascensor (2021) AMZN WEB-DL 1080p Latino pelicula full hd, El Ascensor (2021) AMZN WEB-DL 1080p Latino mega latino, El Ascensor (2021) AMZN WEB-DL 1080p Latino 4k latino, El Ascensor (2021) AMZN WEB-DL 1080p Latino pelicula completa, El Ascensor (2021) AMZN WEB-DL 1080p Latino descargar gratis, descargar El Ascensor (2021) AMZN WEB-DL 1080p Latino pelicula latino, El Ascensor (2021) AMZN WEB-DL 1080p Latino 1 link mega, El Ascensor (2021) AMZN WEB-DL 1080p Latino 1 link google drive, El Ascensor (2021) AMZN WEB-DL 1080p Latino hd 1080p latino.
Comentarios 0