×

¿Problemas para descargar con Mozilla, EDGE? Deshabilita la opción "Abrir vinculos en una pestaña nueva" tal como lo muestra ésta imagen.

El Arte De Matar (2023) REMUX 1080p Latino

86 vistas

Información de El Arte De Matar (2023) REMUX 1080p Latino

Datos de la película

  • Calidad: Full 1080p
  • Audio: Español Latino AC3 5.1 WEB-DL - Ingles DTS 5.1 BLURAY
  • Subtitulos: Español Latino SRT- FORZADOS SRT
  • Resolución: 1920x1080p
  • Formato: MKV
  • Codec: H.264
  • Encoder: Melkor
  • Mediainfo: Clic para Mostrar Datos Ver
  • El Arte De Matar (2023) REMUX 1080p Latino.mkv
    Format                      : Matroska
    Format version              : Version 4
    File size                   : 24.1 GiB
    Duration                    : 1 h 37 min
    Overall bit rate mode       : Variable
    Overall bit rate            : 35.5 Mb/s
    Movie name                  : The Kill Room (2023) CinemaniaHDD.Net
    Encoded date                : UTC 2023-11-30 06:28:03
    Writing application         : mkvmerge v56.1.0 ('My Friend') 64-bit
    Writing library             : libebml v1.4.2 + libmatroska v1.6.4
    Attachments                 : CINEMANIAHD.png
    Site                        : CinemaniaHDD.Net
    Uploader                    : Melkor

    Video
    ID                          : 1
    ID in the original source m : 4113 (0x1011)
    Format                      : AVC
    Format/Info                 : Advanced Video Codec
    Format profile              : High@L4.1
    Format settings             : CABAC / 4 Ref Frames
    Format settings, CABAC      : Yes
    Format settings, Reference  : 4 frames
    Codec ID                    : V_MPEG4/ISO/AVC
    Duration                    : 1 h 37 min
    Bit rate mode               : Constant
    Bit rate                    : 32.2 Mb/s
    Nominal bit rate            : 34.0 Mb/s
    Width                       : 1 920 pixels
    Height                      : 1 080 pixels
    Display aspect ratio        : 16:9
    Frame rate mode             : Constant
    Frame rate                  : 23.976 (24000/1001) FPS
    Color space                 : YUV
    Chroma subsampling          : 4:2:0
    Bit depth                   : 8 bits
    Scan type                   : Progressive
    Bits/(Pixel*Frame)          : 0.647
    Stream size                 : 21.8 GiB (91%)
    Title                       : REMUX HD1080p [CinemaniaHDD]
    Default                     : Yes
    Forced                      : Yes
    Original source medium      : Blu-ray

    Audio #1
    ID                          : 2
    Format                      : AC-3
    Format/Info                 : Audio Coding 3
    Commercial name             : Dolby Digital
    Codec ID                    : A_AC3
    Duration                    : 1 h 37 min
    Bit rate mode               : Constant
    Bit rate                    : 448 kb/s
    Channel(s)                  : 6 channels
    Channel layout              : L R C LFE Ls Rs
    Sampling rate               : 48.0 kHz
    Frame rate                  : 31.250 FPS (1536 SPF)
    Compression mode            : Lossy
    Stream size                 : 311 MiB (1%)
    Title                       : Español Latino [CinemaniaHDD]
    Language                    : Spanish
    Service kind                : Complete Main
    Default                     : Yes
    Forced                      : Yes

    Audio #2
    ID                          : 3
    ID in the original source m : 4352 (0x1100)
    Format                      : DTS XLL
    Format/Info                 : Digital Theater Systems
    Commercial name             : DTS-HD Master Audio
    Codec ID                    : A_DTS
    Duration                    : 1 h 37 min
    Bit rate mode               : Variable
    Bit rate                    : 2 825 kb/s
    Channel(s)                  : 6 channels
    Channel layout              : C L R Ls Rs LFE
    Sampling rate               : 48.0 kHz
    Frame rate                  : 93.750 FPS (512 SPF)
    Bit depth                   : 24 bits
    Compression mode            : Lossless
    Stream size                 : 1.92 GiB (8%)
    Title                       : Ingles [CinemaniaHDD]
    Language                    : English
    Default                     : No
    Forced                      : No
    Original source medium      : Blu-ray

    Text #1
    ID                          : 4
    Format                      : UTF-8
    Codec ID                    : S_TEXT/UTF8
    Codec ID/Info               : UTF-8 Plain Text
    Duration                    : 1 h 25 min
    Bit rate                    : 0 b/s
    Count of elements           : 13
    Stream size                 : 456 Bytes (0%)
    Title                       : Forzados-SRT [CinemaniaHDD]
    Language                    : Spanish
    Default                     : Yes
    Forced                      : Yes

    Text #2
    ID                          : 5
    Format                      : UTF-8
    Codec ID                    : S_TEXT/UTF8
    Codec ID/Info               : UTF-8 Plain Text
    Duration                    : 1 h 31 min
    Bit rate                    : 65 b/s
    Count of elements           : 1372
    Stream size                 : 44.2 KiB (0%)
    Title                       : Español-SRT [CinemaniaHDD]
    Language                    : Spanish
    Default                     : No
    Forced                      : No

    Text #3
    ID                          : 6
    ID in the original source m : 4608 (0x1200)
    Format                      : PGS
    Muxing mode                 : zlib
    Codec ID                    : S_HDMV/PGS
    Codec ID/Info               : Picture based subtitle format used on BDs/HD-DVDs
    Duration                    : 1 h 35 min
    Bit rate                    : 57.7 kb/s
    Count of elements           : 2912
    Stream size                 : 39.5 MiB (0%)
    Title                       : Ingles [CinemaniaHDD]
    Language                    : English
    Default                     : No
    Forced                      : No
    Original source medium      : Blu-ray

    Menu
    00:00:00.000                : Chapter 01
    00:05:51.976                : Chapter 02
    00:17:04.773                : Chapter 03
    00:26:22.080                : Chapter 04
    00:36:44.827                : Chapter 05
    00:46:01.175                : Chapter 06
    00:55:55.560                : Chapter 07
    01:03:51.285                : Chapter 08
    01:10:14.793                : Chapter 09
    01:19:17.419                : Chapter 10
    01:25:35.630                : Chapter 11
    01:31:24.687                : Chapter 12

  • Peso: 24.1 GiB

Sinopsis

Descargar El Arte De Matar (2023) REMUX 1080p Latino. Un asesino a sueldo, su jefe, una comerciante de arte y un plan de blanqueo de dinero convierten accidentalmente de la noche a la mañana a este asesino en una sensación vanguardista, que hace que se enfrente al mundo del arte y a los bajos fondos.

Ficha técnica

Video trailer de la película

Enlaces de descarga

Rip de Bluray

Descargar El Arte De Matar (2023) REMUX 1080p Latino




Aportes de DPeliculasHDmega la pass es:dpeliculashdmega.org Aportes de CinemaniaHD la pass es:cinemaniahdd.com Aportes recientes:cinemaniahdd.net
Guardado en : Comedia , Crimen , Remux , Suspenso

Películas relacionadas

  • Players (2024) NF WEB-DL 1080p Latino

    Players (2024) NF WEB-DL 1080p Latino

    2024
    Players (2024) NF WEB-DL 1080p Latino

    1h 45m 2024

    Descargar Players (2024) NF WEB-DL 1080p Latino. Una periodista deportiva neoyorquina con un ingenioso...

    Director: Trish Sie

    Género: Comedia

    Actores: Veraalba Santa

  • Combate clandestino (2024) AMZN WEB-DL 1080p Latino

    Combate clandestino (2024) AMZN WEB-DL 1080p Latino

    2024
    Combate clandestino (2024) AMZN WEB-DL 1080p Latino

    1h 30m 2024

    Descargar Combate clandestino (2024) AMZN WEB-DL 1080p Latino. Un ex soldado a la deriva se convierte...

    Director: Christian Sesma

    Género: Acción

    Actores: Tyler Wombles

descargar El Arte De Matar (2023) REMUX 1080p Latino Full 1080p 1080p gratis, El Arte De Matar (2023) REMUX 1080p Latino Full 1080p mega 1 link, El Arte De Matar (2023) REMUX 1080p Latino Full 1080p pelicula completa, descargar El Arte De Matar (2023) REMUX 1080p Latino Full 1080p gratis en mega.

El Arte De Matar (2023) REMUX 1080p Latino pelicula full hd, El Arte De Matar (2023) REMUX 1080p Latino mega latino, El Arte De Matar (2023) REMUX 1080p Latino 4k latino, El Arte De Matar (2023) REMUX 1080p Latino pelicula completa, El Arte De Matar (2023) REMUX 1080p Latino descargar gratis, descargar El Arte De Matar (2023) REMUX 1080p Latino pelicula latino, El Arte De Matar (2023) REMUX 1080p Latino 1 link mega, El Arte De Matar (2023) REMUX 1080p Latino 1 link google drive, El Arte De Matar (2023) REMUX 1080p Latino hd 1080p latino.
Comentarios 0