×

¿Problemas para descargar con Mozilla, EDGE? Deshabilita la opción "Abrir vinculos en una pestaña nueva" tal como lo muestra ésta imagen.

El arte de la guerra (2000) Full 1080p Latino

1.483 vistas

Información de El arte de la guerra (2000) Full 1080p Latino

el arte de la guerra 39210 poster

Datos de la película

  • Calidad: Full 1080p
  • Audio: Español Latino AC3 2.0 BLURAY - Ingles DTS 5.1 BLURAY
  • Subtitulos: Español Latino PGS - Ingles PGS
  • Resolución: 1920X1080
  • Formato: MKV
  • Codec: H.264
  • Encoder: Dracarys
  • Mediainfo: Clic para Mostrar Datos Ver
  • Format                                   : Matroska
    Format version                           : Version 4 / Version 2
    File size                                : 6.71 GiB
    Duration                                 : 1 h 57 min
    Overall bit rate                         : 8 185 kb/s
    Movie name                               : CinemaniaHDD.com
    Encoded date                             : UTC 2017-12-20 22:55:33 / UTC 2017-12-20T06:46:34Z
    Writing application                      : mkvmerge v15.0.0 ('Duel with the Devil') 64-bit
    Writing library                          : libebml v1.3.5 + libmatroska v1.4.5 / Lavf57.7.2

    Video
    ID                                       : 1
    Format                                   : AVC
    Format/Info                              : Advanced Video Codec
    Format profile                           : High@L4.1
    Format settings                          : CABAC / 4 Ref Frames
    Format settings, CABAC                   : Yes
    Format settings, RefFrames               : 4 frames
    Codec ID                                 : V_MPEG4/ISO/AVC
    Duration                                 : 1 h 57 min
    Bit rate                                 : 6 321 kb/s
    Width                                    : 1 920 pixels
    Height                                   : 1 080 pixels
    Display aspect ratio                     : 16:9
    Frame rate mode                          : Constant
    Frame rate                               : 23.976 (24000/1001) FPS
    Color space                              : YUV
    Chroma subsampling                       : 4:2:0
    Bit depth                                : 8 bits
    Scan type                                : Progressive
    Bits/(Pixel*Frame)                       : 0.127
    Stream size                              : 5.18 GiB (77%)
    Title                                    : El arte de la guerra (2000) Full 1080p Latino
    Writing library                          : x264 core 148 r2708 86b7198
    Encoding settings                        : cabac=1 / ref=4 / deblock=1:0:0 / analyse=0x3:0x133 / me=esa / subme=10 / psy=1 / psy_rd=1.00:0.00 / mixed_ref=1 / me_range=24 / chroma_me=1 / trellis=2 / 8x8dct=1 / cqm=0 / deadzone=21,11 / fast_pskip=1 / chroma_qp_offset=-2 / threads=34 / lookahead_threads=5 / sliced_threads=0 / nr=0 / decimate=1 / interlaced=0 / bluray_compat=0 / constrained_intra=0 / bframes=8 / b_pyramid=2 / b_adapt=2 / b_bias=0 / direct=3 / weightb=1 / open_gop=0 / weightp=2 / keyint=240 / keyint_min=24 / scenecut=40 / intra_refresh=0 / rc_lookahead=60 / rc=crf / mbtree=1 / crf=20.0 / qcomp=0.60 / qpmin=0 / qpmax=69 / qpstep=4 / vbv_maxrate=62500 / vbv_bufsize=78125 / crf_max=0.0 / nal_hrd=none / filler=0 / ip_ratio=1.40 / aq=1:1.00
    Language                                 : English
    Default                                  : Yes
    Forced                                   : No
    Color range                              : Limited
    Color primaries                          : BT.709
    Transfer characteristics                 : BT.709
    Matrix coefficients                      : BT.709
    Statistics Tags Issue                    : mkvmerge v15.0.0 ('Duel with the Devil') 64-bit 2017-12-20 22:55:33 / mkvmerge v15.0.0 ('Duel with the Devil') 64-bit 2017-12-20 22:55:33 / UTC 2017-12-20T06:46:34Z
    FromStats_BitRate                        : 6458586
    FromStats_Duration                       : 01:57:23.537000000
    FromStats_FrameCount                     : 168876
    FromStats_StreamSize                     : 5686411734

    Audio #1
    ID                                       : 2
    Format                                   : AC-3
    Format/Info                              : Audio Coding 3
    Mode                                     : Dolby Digital
    Format settings, Endianness              : Big
    Codec ID                                 : A_AC3
    Duration                                 : 1 h 57 min
    Bit rate mode                            : Constant
    Bit rate                                 : 192 kb/s
    Channel(s)                               : 2 channels
    Channel positions                        : Front: L R
    Sampling rate                            : 48.0 kHz
    Frame rate                               : 31.250 FPS (1536 SPF)
    Bit depth                                : 16 bits
    Compression mode                         : Lossy
    Stream size                              : 161 MiB (2%)
    Language                                 : Spanish
    Service kind                             : Complete Main
    Default                                  : Yes
    Forced                                   : No
    Statistics Tags Issue                    : mkvmerge v15.0.0 ('Duel with the Devil') 64-bit 2017-12-20 22:55:33 / mkvmerge v15.0.0 ('Duel with the Devil') 64-bit 2017-12-20 22:55:33 / UTC 2017-12-20T06:46:34Z
    FromStats_BitRate                        : 192000
    FromStats_Duration                       : 01:57:23.584000000
    FromStats_FrameCount                     : 220112
    FromStats_StreamSize                     : 169046016

    Audio #2
    ID                                       : 3
    Format                                   : DTS
    Format/Info                              : Digital Theater Systems
    Mode                                     : 16
    Format settings, Endianness              : Big
    Codec ID                                 : A_DTS
    Duration                                 : 1 h 57 min
    Bit rate mode                            : Constant
    Bit rate                                 : 1 509 kb/s
    Channel(s)                               : 6 channels
    Channel positions                        : Front: L C R, Side: L R, LFE
    Sampling rate                            : 48.0 kHz
    Frame rate                               : 93.750 FPS (512 SPF)
    Bit depth                                : 24 bits
    Compression mode                         : Lossy
    Stream size                              : 1.24 GiB (18%)
    Language                                 : English
    Default                                  : No
    Forced                                   : No
    Statistics Tags Issue                    : mkvmerge v15.0.0 ('Duel with the Devil') 64-bit 2017-12-20 22:55:33 / mkvmerge v15.0.0 ('Duel with the Devil') 64-bit 2017-12-20 22:55:33 / UTC 2017-12-20T06:46:34Z
    FromStats_BitRate                        : 1508999
    FromStats_Duration                       : 01:57:23.574000000
    FromStats_FrameCount                     : 660335
    FromStats_StreamSize                     : 1328594020

    Text #1
    ID                                       : 4
    Format                                   : PGS
    Muxing mode                              : zlib
    Codec ID                                 : S_HDMV/PGS
    Codec ID/Info                            : Picture based subtitle format used on BDs/HD-DVDs
    Language                                 : English
    Default                                  : No
    Forced                                   : No
    Statistics Tags Issue                    : mkvmerge v15.0.0 ('Duel with the Devil') 64-bit 2017-12-20 22:55:33 / mkvmerge v15.0.0 ('Duel with the Devil') 64-bit 2017-12-20 22:55:33 / UTC 2017-12-20T06:46:34Z
    FromStats_BitRate                        : 28228
    FromStats_Duration                       : 01:55:35.720000000
    FromStats_FrameCount                     : 2458
    FromStats_StreamSize                     : 24473135

    Text #2
    ID                                       : 5
    Format                                   : PGS
    Muxing mode                              : zlib
    Codec ID                                 : S_HDMV/PGS
    Codec ID/Info                            : Picture based subtitle format used on BDs/HD-DVDs
    Language                                 : Spanish
    Default                                  : No
    Forced                                   : No
    Statistics Tags Issue                    : mkvmerge v15.0.0 ('Duel with the Devil') 64-bit 2017-12-20 22:55:33 / mkvmerge v15.0.0 ('Duel with the Devil') 64-bit 2017-12-20 22:55:33 / UTC 2017-12-20T06:46:34Z
    FromStats_BitRate                        : 22732
    FromStats_Duration                       : 01:55:57.825000000
    FromStats_FrameCount                     : 2112
    FromStats_StreamSize                     : 19770937

    Menu
    00:00:00.000                             : :Chapter 1
    00:04:15.046                             : :Chapter 2
    00:06:38.440                             : :Chapter 3
    00:08:57.996                             : :Chapter 4
    00:12:25.161                             : :Chapter 5
    00:16:56.682                             : :Chapter 6
    00:22:01.362                             : :Chapter 7
    00:26:05.064                             : :Chapter 8
    00:29:26.181                             : :Chapter 9
    00:32:56.933                             : :Chapter 10
    00:35:57.656                             : :Chapter 11
    00:37:23.491                             : :Chapter 12
    00:41:01.042                             : :Chapter 13
    00:43:10.338                             : :Chapter 14
    00:45:34.899                             : :Chapter 15
    00:49:58.496                             : :Chapter 16
    00:54:42.279                             : :Chapter 17
    00:58:28.505                             : :Chapter 18
    01:02:52.102                             : :Chapter 19
    01:06:50.381                             : :Chapter 20
    01:09:53.940                             : :Chapter 21
    01:14:03.940                             : :Chapter 22
    01:17:52.585                             : :Chapter 23
    01:20:18.814                             : :Chapter 24
    01:24:17.511                             : :Chapter 25
    01:29:11.388                             : :Chapter 26
    01:31:22.268                             : :Chapter 27
    01:33:59.592                             : :Chapter 28
    01:37:37.727                             : :Chapter 29
    01:40:06.918                             : :Chapter 30
    01:43:11.894                             : :Chapter 31
    01:46:01.188                             : :Chapter 32
    01:48:58.449                             : :Chapter 33
    01:50:42.052                             : :Chapter 34
    01:53:40.564                             : :Chapter 35

  • Peso: 6.71 GiB

Sinopsis

Antes de la celebración de una importante conferencia, Neil Shaw, agente del FBI, es acusado del asesinato del embajador chino en las Naciones Unidas. Pero, si Shaw quiere demostrar su inocencia, tendrá que desentrañar la conspiración política que hay detrás de ese crimen. Y para lograrlo tendrá que huir de la justicia y enfrentarse a los verdaderos culpables. (FILMAFFINITY)

Ficha técnica

Video trailer de la película

Enlaces de descarga

Rip de Bluray

Descargar El arte de la guerra (2000) Full 1080p Latino




Aportes de DPeliculasHDmega la pass es:dpeliculashdmega.org Aportes de CinemaniaHD la pass es:cinemaniahdd.com Aportes recientes:cinemaniahdd.net

Películas relacionadas

descargar El arte de la guerra (2000) Full 1080p Latino Full 1080p 1080p gratis, El arte de la guerra (2000) Full 1080p Latino Full 1080p mega 1 link, El arte de la guerra (2000) Full 1080p Latino Full 1080p pelicula completa, descargar El arte de la guerra (2000) Full 1080p Latino Full 1080p gratis en mega.

El arte de la guerra (2000) Full 1080p Latino pelicula full hd, El arte de la guerra (2000) Full 1080p Latino mega latino, El arte de la guerra (2000) Full 1080p Latino 4k latino, El arte de la guerra (2000) Full 1080p Latino pelicula completa, El arte de la guerra (2000) Full 1080p Latino descargar gratis, descargar El arte de la guerra (2000) Full 1080p Latino pelicula latino, El arte de la guerra (2000) Full 1080p Latino 1 link mega, El arte de la guerra (2000) Full 1080p Latino 1 link google drive, El arte de la guerra (2000) Full 1080p Latino hd 1080p latino.
Comentarios 0