×

¿Problemas para descargar con Mozilla, EDGE? Deshabilita la opción "Abrir vinculos en una pestaña nueva" tal como lo muestra ésta imagen.

El Aro: Resurrección (2020) AMZN WEB-DL 1080p Latino

41 vistas

Información de El Aro: Resurrección (2020) AMZN WEB-DL 1080p Latino

Datos de la película

  • Calidad: WEBDL
  • Audio: Se especifica abajo de la Sinopsis
  • Subtitulos: Español Latino SRT- FORZADOS SRT
  • Resolución: 1920x1080p
  • Formato: MKV
  • Codec: H.264
  • Encoder: Melkor
  • Mediainfo: Clic para Mostrar Datos Ver
  • El Aro Resurrecion (2020) AMZN WebDL 1080p Latino.mkv
    Format                      : Matroska
    Format version              : Version 4
    File size                   : 5.77 GiB
    Duration                    : 1 h 29 min
    Overall bit rate            : 9 272 kb/s
    Movie name                  : The Perilous Internet Ring (2020) CinemaniaHDD.Net
    Encoded date                : UTC 2023-01-13 05:27:00
    Writing application         : mkvmerge v56.1.0 ('My Friend') 64-bit
    Writing library             : libebml v1.4.2 + libmatroska v1.6.4
    Attachments                 : CINEMANIAHD.png

    Video
    ID                          : 1
    Format                      : AVC
    Format/Info                 : Advanced Video Codec
    Format profile              : High@L4
    Format settings             : CABAC / 4 Ref Frames
    Format settings, CABAC      : Yes
    Format settings, Reference  : 4 frames
    Codec ID                    : V_MPEG4/ISO/AVC
    Duration                    : 1 h 29 min
    Bit rate mode               : Constant
    Bit rate                    : 7 349 kb/s
    Nominal bit rate            : 10 000 kb/s
    Width                       : 1 920 pixels
    Height                      : 1 080 pixels
    Display aspect ratio        : 16:9
    Frame rate mode             : Constant
    Frame rate                  : 24.000 FPS
    Color space                 : YUV
    Chroma subsampling          : 4:2:0
    Bit depth                   : 8 bits
    Scan type                   : Progressive
    Bits/(Pixel*Frame)          : 0.148
    Stream size                 : 4.57 GiB (79%)
    Title                       : Web HD1080p [CinemaniaHDD]
    Language                    : English
    Default                     : Yes
    Forced                      : Yes
    Color range                 : Limited
    Color primaries             : BT.709
    Transfer characteristics    : BT.709
    Matrix coefficients         : BT.709

    Audio #1
    ID                          : 2
    Format                      : AC-3
    Format/Info                 : Audio Coding 3
    Commercial name             : Dolby Digital
    Codec ID                    : A_AC3
    Duration                    : 1 h 29 min
    Bit rate mode               : Constant
    Bit rate                    : 640 kb/s
    Channel(s)                  : 6 channels
    Channel layout              : L R C LFE Ls Rs
    Sampling rate               : 48.0 kHz
    Frame rate                  : 31.250 FPS (1536 SPF)
    Compression mode            : Lossy
    Stream size                 : 408 MiB (7%)
    Title                       : Español Latino AC3 [CinemaniaHDD]
    Language                    : Spanish
    Service kind                : Complete Main
    Default                     : Yes
    Forced                      : Yes

    Audio #2
    ID                          : 3
    Format                      : E-AC-3
    Format/Info                 : Enhanced AC-3
    Commercial name             : Dolby Digital Plus
    Codec ID                    : A_EAC3
    Duration                    : 1 h 29 min
    Bit rate mode               : Constant
    Bit rate                    : 640 kb/s
    Channel(s)                  : 6 channels
    Channel layout              : L R C LFE Ls Rs
    Sampling rate               : 48.0 kHz
    Frame rate                  : 31.250 FPS (1536 SPF)
    Compression mode            : Lossy
    Stream size                 : 408 MiB (7%)
    Title                       : Español Latino EAC3 [CinemaniaHDD]
    Language                    : Spanish
    Service kind                : Complete Main
    Default                     : No
    Forced                      : No

    Audio #3
    ID                          : 4
    Format                      : E-AC-3
    Format/Info                 : Enhanced AC-3
    Commercial name             : Dolby Digital Plus
    Codec ID                    : A_EAC3
    Duration                    : 1 h 29 min
    Bit rate mode               : Constant
    Bit rate                    : 640 kb/s
    Channel(s)                  : 6 channels
    Channel layout              : L R C LFE Ls Rs
    Sampling rate               : 48.0 kHz
    Frame rate                  : 31.250 FPS (1536 SPF)
    Compression mode            : Lossy
    Stream size                 : 408 MiB (7%)
    Title                       : Chino [CinemaniaHDD]
    Language                    : Chinese
    Service kind                : Complete Main
    Default                     : No
    Forced                      : No

    Text #1
    ID                          : 5
    Format                      : UTF-8
    Codec ID                    : S_TEXT/UTF8
    Codec ID/Info               : UTF-8 Plain Text
    Duration                    : 1 h 23 min
    Bit rate                    : 2 b/s
    Count of elements           : 47
    Stream size                 : 1.42 KiB (0%)
    Title                       : Forzados-SRT [CinemaniaHDD]
    Language                    : Spanish
    Default                     : Yes
    Forced                      : Yes

    Text #2
    ID                          : 6
    Format                      : UTF-8
    Codec ID                    : S_TEXT/UTF8
    Codec ID/Info               : UTF-8 Plain Text
    Duration                    : 1 h 25 min
    Bit rate                    : 40 b/s
    Count of elements           : 978
    Stream size                 : 25.0 KiB (0%)
    Title                       : Español-SRT [CinemaniaHDD]
    Language                    : Spanish
    Default                     : No
    Forced                      : No

  • Peso: 5.77 GiB

Sinopsis

Descargar El Aro: Resurrección (2020) AMZN WEB-DL 1080p Latino. Basada en la famosa novela de terror «She Died on QQ» de Ma Boyong, un «genio literario» y dirigida por Norio Tsuruta, el director «padre de las películas de terror japonesas». Una novela que ha estado perdida durante años en Internet se renueva repentinamente y las personas que la leen mueren de manera extraña. Xiao Nuo, una estudiante universitaria, vio el aterrador estado de muerte de estas personas en un hospital. Cuando comienza a ver más y más muertes, descubre que la forma en la que mueren es exactamente la misma que se describe en la novela. Sin querer ella lee la novela y ahora su vida corre peligro.

Español Latino AC3 & EAC3 5.1 Web – Chino EAC3 5.1 Web

Ficha técnica

Video trailer de la película

Enlaces de descarga

Rip de Bluray

Descargar El Aro: Resurrección (2020) AMZN WEB-DL 1080p Latino




Aportes de DPeliculasHDmega la pass es:dpeliculashdmega.org Aportes de CinemaniaHD la pass es:cinemaniahdd.com
Guardado en : Suspenso , Terror

Películas relacionadas

descargar El Aro: Resurrección (2020) AMZN WEB-DL 1080p Latino WEBDL 1080p gratis, El Aro: Resurrección (2020) AMZN WEB-DL 1080p Latino WEBDL mega 1 link, El Aro: Resurrección (2020) AMZN WEB-DL 1080p Latino WEBDL pelicula completa, descargar El Aro: Resurrección (2020) AMZN WEB-DL 1080p Latino WEBDL gratis en mega.

El Aro: Resurrección (2020) AMZN WEB-DL 1080p Latino pelicula full hd, El Aro: Resurrección (2020) AMZN WEB-DL 1080p Latino mega latino, El Aro: Resurrección (2020) AMZN WEB-DL 1080p Latino 4k latino, El Aro: Resurrección (2020) AMZN WEB-DL 1080p Latino pelicula completa, El Aro: Resurrección (2020) AMZN WEB-DL 1080p Latino descargar gratis, descargar El Aro: Resurrección (2020) AMZN WEB-DL 1080p Latino pelicula latino, El Aro: Resurrección (2020) AMZN WEB-DL 1080p Latino 1 link mega, El Aro: Resurrección (2020) AMZN WEB-DL 1080p Latino 1 link google drive, El Aro: Resurrección (2020) AMZN WEB-DL 1080p Latino hd 1080p latino.
Comentarios 0