El árbol de los deseos (2020) PLACEBO Full HD 1080p Latino

42 vistas
1 estrella2 estrellas3 estrellas4 estrellas5 estrellas (Ninguna valoración todavía)
Cargando...

Información de El árbol de los deseos (2020) PLACEBO Full HD 1080p Latino

Datos de la película

  • Calidad: Full 1080p
  • Audio: Se especifica abajo de la Sinopsis
  • Subtitulos: No
  • Resolución: 1920x1080p
  • Formato: MKV
  • Codec: H.264
  • Encoder: Melkor
  • Mediainfo: Clic para Mostrar Datos Ver
  • El Arbol De Los Deseos (2020) PLACEBO Full HD 1080p Latino.mkv
    Format                      : Matroska
    Format version              : Version 4
    File size                   : 3.93 GiB
    Duration                    : 1 h 29 min
    Overall bit rate mode       : Variable
    Overall bit rate            : 6 283 kb/s
    Movie name                  : The Wishmas Tree (2020) CinemaniaHDD.Net
    Encoded date                : UTC 2020-12-21 02:49:56
    Writing application         : mkvmerge v51.0.0 ('I Wish') 64-bit
    Writing library             : libebml v1.4.0 + libmatroska v1.6.2
    Attachments                 : CINEMANIAHD.png

    Video
    ID                          : 1
    Format                      : AVC
    Format/Info                 : Advanced Video Codec
    Format profile              : High@L4.1
    Format settings             : CABAC / 4 Ref Frames
    Format settings, CABAC      : Yes
    Format settings, Reference  : 4 frames
    Codec ID                    : V_MPEG4/ISO/AVC
    Duration                    : 1 h 29 min
    Bit rate                    : 3 888 kb/s
    Width                       : 1 920 pixels
    Height                      : 1 080 pixels
    Display aspect ratio        : 16:9
    Frame rate mode             : Constant
    Frame rate                  : 24.000 FPS
    Color space                 : YUV
    Chroma subsampling          : 4:2:0
    Bit depth                   : 8 bits
    Scan type                   : Progressive
    Bits/(Pixel*Frame)          : 0.078
    Stream size                 : 2.43 GiB (62%)
    Title                       : Full HD1080p [CinemaniaHDD]
    Writing library             : x264 core 157 r2935 545de2f
    Encoding settings           : cabac=1 / ref=4 / deblock=1:0:0 / analyse=0x3:0x133 / me=tesa / subme=11 / psy=1 / psy_rd=1.00:0.00 / mixed_ref=1 / me_range=24 / chroma_me=1 / trellis=2 / 8x8dct=1 / cqm=0 / deadzone=21,11 / fast_pskip=0 / chroma_qp_offset=-2 / threads=24 / lookahead_threads=6 / sliced_threads=0 / nr=0 / decimate=1 / interlaced=0 / bluray_compat=0 / constrained_intra=0 / bframes=16 / b_pyramid=2 / b_adapt=2 / b_bias=0 / direct=3 / weightb=1 / open_gop=0 / weightp=2 / keyint=240 / keyint_min=24 / scenecut=40 / intra_refresh=0 / rc_lookahead=60 / rc=crf / mbtree=1 / crf=19.0 / qcomp=0.60 / qpmin=0 / qpmax=69 / qpstep=4 / vbv_maxrate=62500 / vbv_bufsize=78125 / crf_max=0.0 / nal_hrd=none / filler=0 / ip_ratio=1.40 / aq=1:1.00
    Default                     : Yes
    Forced                      : Yes
    Color range                 : Limited
    Color primaries             : BT.709
    Transfer characteristics    : BT.709
    Matrix coefficients         : BT.709

    Audio #1
    ID                          : 2
    Format                      : AC-3
    Format/Info                 : Audio Coding 3
    Commercial name             : Dolby Digital
    Codec ID                    : A_AC3
    Duration                    : 1 h 29 min
    Bit rate mode               : Constant
    Bit rate                    : 256 kb/s
    Channel(s)                  : 2 channels
    Channel layout              : L R
    Sampling rate               : 48.0 kHz
    Frame rate                  : 31.250 FPS (1536 SPF)
    Compression mode            : Lossy
    Stream size                 : 163 MiB (4%)
    Title                       : Español Latino [CinemaniaHDD]
    Language                    : Spanish
    Service kind                : Complete Main
    Default                     : Yes
    Forced                      : Yes

    Audio #2
    ID                          : 3
    ID in the original source m : 4353 (0x1101)
    Format                      : DTS XLL
    Format/Info                 : Digital Theater Systems
    Commercial name             : DTS-HD Master Audio
    Codec ID                    : A_DTS
    Duration                    : 1 h 29 min
    Bit rate mode               : Variable
    Bit rate                    : 2 145 kb/s
    Channel(s)                  : 6 channels
    Channel layout              : C L R Ls Rs LFE
    Sampling rate               : 48.0 kHz
    Frame rate                  : 93.750 FPS (512 SPF)
    Bit depth                   : 16 bits
    Compression mode            : Lossless
    Stream size                 : 1.34 GiB (34%)
    Title                       : Ingles [CinemaniaHDD]
    Language                    : English
    Default                     : No
    Forced                      : No
    Original source medium      : Blu-ray

    Menu
    00:00:00.000                : en:Chapter 01
    00:03:37.416                : en:Chapter 02
    00:11:58.833                : en:Chapter 03
    00:22:25.958                : en:Chapter 04
    00:26:20.250                : en:Chapter 05
    00:30:56.250                : en:Chapter 06
    00:40:38.250                : en:Chapter 07
    00:48:44.666                : en:Chapter 08
    00:59:25.458                : en:Chapter 09
    01:04:31.958                : en:Chapter 10
    01:08:56.791                : en:Chapter 11
    01:19:43.375                : en:Chapter 12
    01:29:07.500                : en:Chapter 13

  • Peso: 3.93 GiB

Sinopsis

Descargar El árbol de los deseos (2020) PLACEBO Full HD 1080p Latino. Una joven zarigüeya se equivoca a la hora de pedir un deseo y congela toda su ciudad natal de Sanctuary City, amenazando así la vida de todos sus habitantes.

Español Latino AC3 2.0 – Ingles DTS-HD 5.1 Bluray

Ficha técnica

Video trailer de la película

Enlaces de descarga

Rip de Bluray

Descargar El árbol de los deseos (2020) PLACEBO Full HD 1080p Latino




Aportes de DPeliculasHDmega la pass es:dpeliculashdmega.org Aportes de CinemaniaHD la pass es:cinemaniahdd.com

Películas relacionadas

  • 2012 (2009) REMUX 1080p Latino – CMHDD

    2012 (2009) REMUX 1080p Latino – CMHDD

    2009
    2012 (2009) REMUX 1080p Latino – CMHDD

    0.0 2h 38m 2009

    El geólogo Adrian Helmsley, descubre de que el núcleo de la Tierra se está calentando. Teme que la...

    Director: Tommy Gormley

    Género: Acción

    Actores: Zlatko Burić

  • 2012 (2009) REMUX 4K HDR Latino – CMHDD

    2012 (2009) REMUX 4K HDR Latino – CMHDD

    2009
    2012 (2009) REMUX 4K HDR Latino – CMHDD

    0.0 2h 38m 2009

    El geólogo Adrian Helmsley, descubre de que el núcleo de la Tierra se está calentando. Teme que la...

    Director: Tommy Gormley

    Género: Acción

    Actores: Zlatko Burić

  • El día del fin del mundo (2020) HD 1080p Latino

    El día del fin del mundo (2020) HD 1080p Latino

    2020
    El día del fin del mundo (2020) HD 1080p Latino

    0.0 1h 59m 2020

    Descargar El día del fin del mundo (2020) HD 1080p Latino. Un matrimonio a punto de separarse debe tratar...

    Director: Ric Roman Waugh

    Género: Acción

    Actores: Tracey Bonner

  • El día del fin del mundo (2020) REMUX 1080p Latino

    El día del fin del mundo (2020) REMUX 1080p Latino

    2020
    El día del fin del mundo (2020) REMUX 1080p Latino

    5.0 1h 59m 2020

    Descargar El día del fin del mundo (2020) REMUX 1080p Latino. Un matrimonio a punto de separarse debe...

    Director: Ric Roman Waugh

    Género: Acción

    Actores: Tracey Bonner

Comentarios 0