×

¿Problemas para descargar con Mozilla, EDGE? Deshabilita la opción "Abrir vinculos en una pestaña nueva" tal como lo muestra ésta imagen.

El árbol de los deseos (2020) HD 1080p Latino

218 vistas

Información de El árbol de los deseos (2020) HD 1080p Latino

Datos de la película

  • Calidad: 1080p
  • Audio: Se especifica abajo de la Sinopsis
  • Subtitulos: No
  • Resolución: 1920x1036p
  • Formato: MKV
  • Codec: H.264
  • Encoder: Melkor
  • Mediainfo: Clic para Mostrar Datos Ver
  • El Arbol De Los Deseos (2020) HD 1080p Latino.mkv
    Format                      : Matroska
    Format version              : Version 4
    File size                   : 2.58 GiB
    Duration                    : 1 h 29 min
    Overall bit rate            : 4 132 kb/s
    Movie name                  : The Wishmas Tree (2020) CinemaniaHDD.Net
    Encoded date                : UTC 2020-12-20 22:48:16
    Writing application         : mkvmerge v51.0.0 ('I Wish') 64-bit
    Writing library             : libebml v1.4.0 + libmatroska v1.6.2
    Attachments                 : CINEMANIAHD.png

    Video
    ID                          : 1
    Format                      : AVC
    Format/Info                 : Advanced Video Codec
    Format profile              : High@L4.1
    Format settings             : CABAC / 4 Ref Frames
    Format settings, CABAC      : Yes
    Format settings, Reference  : 4 frames
    Codec ID                    : V_MPEG4/ISO/AVC
    Duration                    : 1 h 29 min
    Bit rate                    : 3 500 kb/s
    Width                       : 1 920 pixels
    Height                      : 1 036 pixels
    Display aspect ratio        : 1.85:1
    Frame rate mode             : Constant
    Frame rate                  : 24.000 FPS
    Color space                 : YUV
    Chroma subsampling          : 4:2:0
    Bit depth                   : 8 bits
    Scan type                   : Progressive
    Bits/(Pixel*Frame)          : 0.073
    Stream size                 : 2.14 GiB (83%)
    Title                       : HD1080p [CinemaniaHDD]
    Writing library             : x264 core 157 r2935 545de2f
    Encoding settings           : cabac=1 / ref=4 / deblock=1:0:0 / analyse=0x3:0x133 / me=umh / subme=9 / psy=1 / psy_rd=1.00:0.00 / mixed_ref=1 / me_range=16 / chroma_me=1 / trellis=2 / 8x8dct=1 / cqm=0 / deadzone=21,11 / fast_pskip=1 / chroma_qp_offset=-2 / threads=24 / lookahead_threads=2 / sliced_threads=0 / nr=0 / decimate=1 / interlaced=0 / bluray_compat=0 / constrained_intra=0 / bframes=3 / b_pyramid=2 / b_adapt=2 / b_bias=0 / direct=3 / weightb=1 / open_gop=0 / weightp=2 / keyint=240 / keyint_min=24 / scenecut=40 / intra_refresh=0 / rc_lookahead=60 / rc=abr / mbtree=1 / bitrate=3500 / ratetol=1.0 / qcomp=0.60 / qpmin=0 / qpmax=69 / qpstep=4 / vbv_maxrate=62500 / vbv_bufsize=78125 / nal_hrd=none / filler=0 / ip_ratio=1.40 / aq=1:1.00
    Default                     : Yes
    Forced                      : Yes
    Color range                 : Limited
    Color primaries             : BT.709
    Transfer characteristics    : BT.709
    Matrix coefficients         : BT.709

    Audio #1
    ID                          : 2
    Format                      : AC-3
    Format/Info                 : Audio Coding 3
    Commercial name             : Dolby Digital
    Codec ID                    : A_AC3
    Duration                    : 1 h 29 min
    Bit rate mode               : Constant
    Bit rate                    : 256 kb/s
    Channel(s)                  : 2 channels
    Channel layout              : L R
    Sampling rate               : 48.0 kHz
    Frame rate                  : 31.250 FPS (1536 SPF)
    Compression mode            : Lossy
    Delay relative to video     : -5 ms
    Stream size                 : 163 MiB (6%)
    Title                       : Español Latino [CinemaniaHDD]
    Language                    : Spanish
    Service kind                : Complete Main
    Default                     : Yes
    Forced                      : Yes

    Audio #2
    ID                          : 3
    Format                      : AC-3
    Format/Info                 : Audio Coding 3
    Commercial name             : Dolby Digital
    Codec ID                    : A_AC3
    Duration                    : 1 h 29 min
    Bit rate mode               : Constant
    Bit rate                    : 448 kb/s
    Channel(s)                  : 6 channels
    Channel layout              : L R C LFE Ls Rs
    Sampling rate               : 48.0 kHz
    Frame rate                  : 31.250 FPS (1536 SPF)
    Compression mode            : Lossy
    Delay relative to video     : -5 ms
    Stream size                 : 286 MiB (11%)
    Title                       : Ingles AC3 [CinemaniaHDD]
    Language                    : English
    Service kind                : Complete Main
    Default                     : No
    Forced                      : No

    Menu
    00:00:00.000                : :Chapter 1
    00:03:37.417                : :Chapter 2
    00:11:59.000                : :Chapter 3
    00:22:26.083                : :Chapter 4
    00:26:20.250                : :Chapter 5
    00:30:56.250                : :Chapter 6
    00:40:38.292                : :Chapter 7
    00:48:44.667                : :Chapter 8
    00:59:25.500                : :Chapter 9
    01:04:32.000                : :Chapter 10
    01:08:56.792                : :Chapter 11
    01:19:43.375                : :Chapter 12
    01:29:07.500                : :Chapter 13

  • Peso: 2.58 GiB

Sinopsis

Descargar El árbol de los deseos (2020) HD 1080p Latino. Una joven zarigüeya se equivoca a la hora de pedir un deseo y congela toda su ciudad natal de Sanctuary City, amenazando así la vida de todos sus habitantes.

Español Latino AC3 2.0 – Ingles AC3 5.1 Bluray

Ficha técnica

Video trailer de la película

Enlaces de descarga

Rip de Bluray

Descargar El árbol de los deseos (2020) HD 1080p Latino




Aportes de DPeliculasHDmega la pass es:dpeliculashdmega.org Aportes de CinemaniaHD la pass es:cinemaniahdd.com
Guardado en : Acción , Animación , Aventura , Familia , HD 1080p

Películas relacionadas

descargar El árbol de los deseos (2020) HD 1080p Latino 1080p 1080p gratis, El árbol de los deseos (2020) HD 1080p Latino 1080p mega 1 link, El árbol de los deseos (2020) HD 1080p Latino 1080p pelicula completa, descargar El árbol de los deseos (2020) HD 1080p Latino 1080p gratis en mega.

El árbol de los deseos (2020) HD 1080p Latino pelicula full hd, El árbol de los deseos (2020) HD 1080p Latino mega latino, El árbol de los deseos (2020) HD 1080p Latino 4k latino, El árbol de los deseos (2020) HD 1080p Latino pelicula completa, El árbol de los deseos (2020) HD 1080p Latino descargar gratis, descargar El árbol de los deseos (2020) HD 1080p Latino pelicula latino, El árbol de los deseos (2020) HD 1080p Latino 1 link mega, El árbol de los deseos (2020) HD 1080p Latino 1 link google drive, El árbol de los deseos (2020) HD 1080p Latino hd 1080p latino.
Comentarios 0