×

¿Problemas para descargar con Mozilla, EDGE? Deshabilita la opción "Abrir vinculos en una pestaña nueva" tal como lo muestra ésta imagen.

El apagón (2019) REMUX 1080p Latino

59 vistas

Información de El apagón (2019) REMUX 1080p Latino

Datos de la película

  • Calidad: Full 1080p
  • Audio: Español Latino AC3 2.0 WEB-DL - Ingles DTS 5.1 BLURAY
  • Subtitulos: Español Latino PGS - Ingles PGS
  • Resolución: 1920x1080p
  • Formato: MKV
  • Codec: H.264
  • Encoder: Melkor
  • Mediainfo: Clic para Mostrar Datos Ver
  • El Apagon (2019) REMUX 1080p Latino.mkv
    Format                      : Matroska
    Format version              : Version 4
    File size                   : 26.4 GiB
    Duration                    : 1 h 42 min
    Overall bit rate mode       : Variable
    Overall bit rate            : 36.8 Mb/s
    Movie name                  : Radioflash (2019) CinemaniaHDD.Net
    Encoded date                : UTC 2022-10-07 20:04:21
    Writing application         : mkvmerge v56.1.0 ('My Friend') 64-bit
    Writing library             : libebml v1.4.2 + libmatroska v1.6.4
    Attachments                 : CINEMANIAHD.png

    Video
    ID                          : 1
    Format                      : AVC
    Format/Info                 : Advanced Video Codec
    Format profile              : High@L4.1
    Format settings             : CABAC / 4 Ref Frames
    Format settings, CABAC      : Yes
    Format settings, Reference  : 4 frames
    Codec ID                    : V_MPEG4/ISO/AVC
    Duration                    : 1 h 42 min
    Bit rate mode               : Constant
    Bit rate                    : 34.0 Mb/s
    Nominal bit rate            : 36.0 Mb/s
    Width                       : 1 920 pixels
    Height                      : 1 080 pixels
    Display aspect ratio        : 16:9
    Frame rate mode             : Constant
    Frame rate                  : 23.976 (24000/1001) FPS
    Color space                 : YUV
    Chroma subsampling          : 4:2:0
    Bit depth                   : 8 bits
    Scan type                   : Progressive
    Bits/(Pixel*Frame)          : 0.683
    Stream size                 : 24.3 GiB (92%)
    Title                       : REMUX HD1080p [CinemaniaHDD]
    Language                    : English
    Default                     : Yes
    Forced                      : Yes

    Audio #1
    ID                          : 2
    Format                      : AC-3
    Format/Info                 : Audio Coding 3
    Commercial name             : Dolby Digital
    Codec ID                    : A_AC3
    Duration                    : 1 h 42 min
    Bit rate mode               : Constant
    Bit rate                    : 256 kb/s
    Channel(s)                  : 2 channels
    Channel layout              : L R
    Sampling rate               : 48.0 kHz
    Frame rate                  : 31.250 FPS (1536 SPF)
    Compression mode            : Lossy
    Stream size                 : 188 MiB (1%)
    Title                       : Español Latino [CinemaniaHDD]
    Language                    : Spanish
    Service kind                : Complete Main
    Default                     : Yes
    Forced                      : Yes

    Audio #2
    ID                          : 3
    Format                      : DTS XLL
    Format/Info                 : Digital Theater Systems
    Commercial name             : DTS-HD Master Audio
    Codec ID                    : A_DTS
    Duration                    : 1 h 42 min
    Bit rate mode               : Variable
    Bit rate                    : 2 583 kb/s
    Channel(s)                  : 6 channels
    Channel layout              : C L R Ls Rs LFE
    Sampling rate               : 48.0 kHz
    Frame rate                  : 93.750 FPS (512 SPF)
    Bit depth                   : 24 bits
    Compression mode            : Lossless
    Stream size                 : 1.85 GiB (7%)
    Title                       : Ingles [CinemaniaHDD]
    Language                    : English
    Default                     : No
    Forced                      : No

    Text #1
    ID                          : 4
    Format                      : PGS
    Muxing mode                 : zlib
    Codec ID                    : S_HDMV/PGS
    Codec ID/Info               : Picture based subtitle format used on BDs/HD-DVDs
    Duration                    : 1 h 40 min
    Bit rate                    : 21.4 kb/s
    Count of elements           : 1464
    Stream size                 : 15.4 MiB (0%)
    Title                       : Español-PGS [CinemaniaHDD]
    Language                    : Spanish
    Default                     : No
    Forced                      : No

    Text #2
    ID                          : 5
    Format                      : PGS
    Muxing mode                 : zlib
    Codec ID                    : S_HDMV/PGS
    Codec ID/Info               : Picture based subtitle format used on BDs/HD-DVDs
    Duration                    : 1 h 42 min
    Bit rate                    : 23.3 kb/s
    Count of elements           : 1674
    Stream size                 : 17.0 MiB (0%)
    Title                       : Ingles [CinemaniaHDD]
    Language                    : English
    Default                     : No
    Forced                      : No

    Text #3
    ID                          : 6
    Format                      : UTF-8
    Codec ID                    : S_TEXT/UTF8
    Codec ID/Info               : UTF-8 Plain Text
    Duration                    : 1 h 37 min
    Bit rate                    : 0 b/s
    Count of elements           : 19
    Stream size                 : 558 Bytes (0%)
    Title                       : Forzados-SRT [CinemaniaHDD]
    Language                    : Spanish
    Default                     : Yes
    Forced                      : Yes

    Text #4
    ID                          : 7
    Format                      : UTF-8
    Codec ID                    : S_TEXT/UTF8
    Codec ID/Info               : UTF-8 Plain Text
    Duration                    : 1 h 37 min
    Bit rate                    : 30 b/s
    Count of elements           : 690
    Stream size                 : 21.8 KiB (0%)
    Title                       : Español-SRT [CinemaniaHDD]
    Language                    : Spanish
    Default                     : No
    Forced                      : No

    Menu
    00:00:00.000                : Chapter 1
    00:07:23.735                : Chapter 2
    00:14:37.085                : Chapter 3
    00:24:35.140                : Chapter 4
    00:33:04.900                : Chapter 5
    00:39:34.455                : Chapter 6
    00:47:51.869                : Chapter 7
    00:57:27.235                : Chapter 8
    01:06:22.145                : Chapter 9
    01:14:36.389                : Chapter 10
    01:23:04.521                : Chapter 11
    01:30:34.095                : Chapter 12

  • Peso: 26.4 GiB

Sinopsis

Descargar El apagón (2019) REMUX 1080p Latino. Cuando un ataque nuclear provoca un pulso electromagnético que corta toda la energía, el agua y la comunicación a todo el oeste de los Estados Unidos, Reese se ve inmersa en una lucha demasiado real para sobrevivir. Mientras el pandemónium se apodera de su ciudad, Reese y su padre emprenden un viaje desesperado en busca de seguridad: un peligroso viaje a través de un mundo enloquecido donde cada encuentro con un extraño podría ser el último.

Ficha técnica

Video trailer de la película

Enlaces de descarga

Rip de Bluray

Descargar El apagón (2019) REMUX 1080p Latino




Aportes de DPeliculasHDmega la pass es:dpeliculashdmega.org Aportes de CinemaniaHD la pass es:cinemaniahdd.com
Guardado en : Drama , Remux , Suspenso

Películas relacionadas

descargar El apagón (2019) REMUX 1080p Latino Full 1080p 1080p gratis, El apagón (2019) REMUX 1080p Latino Full 1080p mega 1 link, El apagón (2019) REMUX 1080p Latino Full 1080p pelicula completa, descargar El apagón (2019) REMUX 1080p Latino Full 1080p gratis en mega.

El apagón (2019) REMUX 1080p Latino pelicula full hd, El apagón (2019) REMUX 1080p Latino mega latino, El apagón (2019) REMUX 1080p Latino 4k latino, El apagón (2019) REMUX 1080p Latino pelicula completa, El apagón (2019) REMUX 1080p Latino descargar gratis, descargar El apagón (2019) REMUX 1080p Latino pelicula latino, El apagón (2019) REMUX 1080p Latino 1 link mega, El apagón (2019) REMUX 1080p Latino 1 link google drive, El apagón (2019) REMUX 1080p Latino hd 1080p latino.
Comentarios 0