El alma de la fiesta (2018) Full 1080p Latino

753 vistas
1 estrella2 estrellas3 estrellas4 estrellas5 estrellas (2 votos, promedio: 4,00 de 5)
Cargando…

Información de El alma de la fiesta (2018) Full 1080p Latino

Datos de la película

  • Calidad: Full 1080p
  • Audio: Español Latino AC3 5.1 BLURAY - Ingles DTS 5.1 BLURAY
  • Subtitulos: Español Latino PGS - Ingles PGS
  • Resolución: 1920x1080p
  • Formato: MKV
  • Codec: H.264
  • Encoder: Dracarys
  • Mediainfo: Clic para Mostrar Datos Ver
  • Format                                   : Matroska
    Format version                           : Version 4 / Version 2
    File size                                : 4.82 GiB
    Duration                                 : 1 h 44 min
    Overall bit rate                         : 6 579 kb/s
    Movie name                               : CinemaniaHDD.net
    Encoded date                             : UTC 2018-08-02 04:55:34 / UTC 2018-07-28T01:49:11Z
    Writing application                      : mkvmerge v15.0.0 ('Duel with the Devil') 64-bit
    Writing library                          : libebml v1.3.5 + libmatroska v1.4.5 / Lavf57.7.2

    Video
    ID                                       : 1
    Format                                   : AVC
    Format/Info                              : Advanced Video Codec
    Format profile                           : High@L4.1
    Format settings                          : CABAC / 4 Ref Frames
    Format settings, CABAC                   : Yes
    Format settings, RefFrames               : 4 frames
    Codec ID                                 : V_MPEG4/ISO/AVC
    Duration                                 : 1 h 44 min
    Bit rate                                 : 4 299 kb/s
    Width                                    : 1 920 pixels
    Height                                   : 1 080 pixels
    Display aspect ratio                     : 16:9
    Frame rate mode                          : Constant
    Frame rate                               : 23.976 (24000/1001) FPS
    Color space                              : YUV
    Chroma subsampling                       : 4:2:0
    Bit depth                                : 8 bits
    Scan type                                : Progressive
    Bits/(Pixel*Frame)                       : 0.086
    Stream size                              : 3.15 GiB (65%)
    Title                                    : El alma de la fiesta (2018) Full 1080p Latino
    Writing library                          : x264 core 148 r2708 86b7198
    Encoding settings                        : cabac=1 / ref=4 / deblock=1:0:0 / analyse=0x3:0x133 / me=esa / subme=10 / psy=1 / psy_rd=1.00:0.00 / mixed_ref=1 / me_range=24 / chroma_me=1 / trellis=2 / 8x8dct=1 / cqm=0 / deadzone=21,11 / fast_pskip=1 / chroma_qp_offset=-2 / threads=34 / lookahead_threads=5 / sliced_threads=0 / nr=0 / decimate=1 / interlaced=0 / bluray_compat=0 / constrained_intra=0 / bframes=8 / b_pyramid=2 / b_adapt=2 / b_bias=0 / direct=3 / weightb=1 / open_gop=0 / weightp=2 / keyint=240 / keyint_min=24 / scenecut=40 / intra_refresh=0 / rc_lookahead=60 / rc=crf / mbtree=1 / crf=20.0 / qcomp=0.60 / qpmin=0 / qpmax=69 / qpstep=4 / vbv_maxrate=62500 / vbv_bufsize=78125 / crf_max=0.0 / nal_hrd=none / filler=0 / ip_ratio=1.40 / aq=1:1.00
    Language                                 : English
    Default                                  : Yes
    Forced                                   : No
    Color range                              : Limited
    Color primaries                          : BT.709
    Transfer characteristics                 : BT.709
    Matrix coefficients                      : BT.709
    Statistics Tags Issue                    : mkvmerge v15.0.0 ('Duel with the Devil') 64-bit 2018-08-02 04:55:34 / mkvmerge v15.0.0 ('Duel with the Devil') 64-bit 2018-08-02 04:55:34 / UTC 2018-07-28T01:49:11Z
    FromStats_BitRate                        : 4394383
    FromStats_Duration                       : 01:44:48.825000000
    FromStats_FrameCount                     : 150781
    FromStats_StreamSize                     : 3454438315

    Audio #1
    ID                                       : 2
    Format                                   : AC-3
    Format/Info                              : Audio Coding 3
    Format settings, Endianness              : Big
    Codec ID                                 : A_AC3
    Duration                                 : 1 h 44 min
    Bit rate mode                            : Constant
    Bit rate                                 : 640 kb/s
    Channel(s)                               : 6 channels
    Channel positions                        : Front: L C R, Side: L R, LFE
    Sampling rate                            : 48.0 kHz
    Frame rate                               : 31.250 FPS (1536 SPF)
    Bit depth                                : 16 bits
    Compression mode                         : Lossy
    Stream size                              : 480 MiB (10%)
    Language                                 : Spanish
    Service kind                             : Complete Main
    Default                                  : Yes
    Forced                                   : No
    Statistics Tags Issue                    : mkvmerge v15.0.0 ('Duel with the Devil') 64-bit 2018-08-02 04:55:34 / mkvmerge v15.0.0 ('Duel with the Devil') 64-bit 2018-08-02 04:55:34 / UTC 2018-07-28T01:49:11Z
    FromStats_BitRate                        : 640000
    FromStats_Duration                       : 01:44:48.896000000
    FromStats_FrameCount                     : 196528
    FromStats_StreamSize                     : 503111680

    Audio #2
    ID                                       : 3
    Format                                   : DTS
    Format/Info                              : Digital Theater Systems
    Mode                                     : 16
    Format settings, Endianness              : Big
    Codec ID                                 : A_DTS
    Duration                                 : 1 h 44 min
    Bit rate mode                            : Constant
    Bit rate                                 : 1 509 kb/s
    Channel(s)                               : 6 channels
    Channel positions                        : Front: L C R, Side: L R, LFE
    Sampling rate                            : 48.0 kHz
    Frame rate                               : 93.750 FPS (512 SPF)
    Bit depth                                : 24 bits
    Compression mode                         : Lossy
    Stream size                              : 1.10 GiB (23%)
    Language                                 : English
    Default                                  : No
    Forced                                   : No
    Statistics Tags Issue                    : mkvmerge v15.0.0 ('Duel with the Devil') 64-bit 2018-08-02 04:55:34 / mkvmerge v15.0.0 ('Duel with the Devil') 64-bit 2018-08-02 04:55:34 / UTC 2018-07-28T01:49:11Z
    FromStats_BitRate                        : 1509000
    FromStats_Duration                       : 01:44:48.864000000
    FromStats_FrameCount                     : 589581
    FromStats_StreamSize                     : 1186236972

    Text #1
    ID                                       : 4
    Format                                   : PGS
    Muxing mode                              : zlib
    Codec ID                                 : S_HDMV/PGS
    Codec ID/Info                            : Picture based subtitle format used on BDs/HD-DVDs
    Language                                 : English
    Default                                  : No
    Forced                                   : No
    Statistics Tags Issue                    : mkvmerge v15.0.0 ('Duel with the Devil') 64-bit 2018-08-02 04:55:34 / mkvmerge v15.0.0 ('Duel with the Devil') 64-bit 2018-08-02 04:55:34 / UTC 2018-07-28T01:49:11Z
    FromStats_BitRate                        : 58144
    FromStats_Duration                       : 01:44:40.566000000
    FromStats_FrameCount                     : 4930
    FromStats_StreamSize                     : 45647469

    Text #2
    ID                                       : 5
    Format                                   : PGS
    Muxing mode                              : zlib
    Codec ID                                 : S_HDMV/PGS
    Codec ID/Info                            : Picture based subtitle format used on BDs/HD-DVDs
    Language                                 : Spanish
    Default                                  : No
    Forced                                   : No
    Statistics Tags Issue                    : mkvmerge v15.0.0 ('Duel with the Devil') 64-bit 2018-08-02 04:55:34 / mkvmerge v15.0.0 ('Duel with the Devil') 64-bit 2018-08-02 04:55:34 / UTC 2018-07-28T01:49:11Z
    FromStats_BitRate                        : 48790
    FromStats_Duration                       : 01:43:44.218000000
    FromStats_FrameCount                     : 3800
    FromStats_StreamSize                     : 37960574

    Text #3
    ID                                       : 6
    Format                                   : PGS
    Muxing mode                              : zlib
    Codec ID                                 : S_HDMV/PGS
    Codec ID/Info                            : Picture based subtitle format used on BDs/HD-DVDs
    Title                                    : Forzados
    Language                                 : Spanish
    Default                                  : Yes
    Forced                                   : Yes
    Statistics Tags Issue                    : mkvmerge v15.0.0 ('Duel with the Devil') 64-bit 2018-08-02 04:55:34 / mkvmerge v15.0.0 ('Duel with the Devil') 64-bit 2018-08-02 04:55:34 / UTC 2018-07-28T01:49:11Z
    FromStats_BitRate                        : 216
    FromStats_Duration                       : 01:26:42.781000000
    FromStats_FrameCount                     : 20
    FromStats_StreamSize                     : 140536

    Menu
    00:00:00.000                             : :Chapter 1
    00:11:50.668                             : :Chapter 2
    00:20:13.003                             : :Chapter 3
    00:32:38.081                             : :Chapter 4
    00:43:28.231                             : :Chapter 5
    00:52:32.191                             : :Chapter 6
    01:03:31.683                             : :Chapter 7
    01:13:38.164                             : :Chapter 8
    01:25:30.167                             : :Chapter 9
    01:39:40.600                             : :Chapter 10

  • Peso: 4.82 GiB

Sinopsis

Después de haber sido abandonada por su esposo, Deanna, ama de casa, decide darle un giro a su vida y se inscribe en la misma universidad en la que estudia su hija. Allí se convertirá en el alma de las fiestas.

Ficha técnica

  • Titulo original: Life of the Party
  • Fecha de lanzamiento: 11-05-2018 (United States of America)
  • Director: Ben Falcone
  • Género: Comedia, FULL 1080p Plateadas
  • Puntuación: 4.0 2 votos
  • Duración:
    1 h 44 min

Video trailer de la película

Enlaces de descarga

Rip de Bluray

Descargar El alma de la fiesta (2018) Full 1080p Latino




Aportes de DPeliculasHDmega la pass es:dpeliculashdmega.org Aportes de CinemaniaHD la pass es:cinemaniahdd.com
Guardado en : Comedia , FULL 1080p Plateadas

Películas relacionadas

  • La balada de Buster Scruggs (2018) NF 1080p Latino

    2018
    La balada de Buster Scruggs (2018) NF 1080p Latino

    0.0 2h 12m 2018

    Los siempre singulares Joel y Ethan Cohen escriben y dirigen esta antología de seis historias del Salvaje...

    Director: Joel Coen

    Género: Comedia

    Actores: Zoe Kazan

  • Cambio de princesa (2018) NF 1080p Latino

    2018
    Cambio de princesa (2018) NF 1080p Latino

    0.0 1h 41m 2018

    Una repostera de Chicago y una futura princesa descubren que parecen gemelas, así que idean un plan...

    Director: Mike Rohl

    Género: Comedia

    Actores: Vanessa Hudgens

  • La pequeña brujita (2018) AMZN 1080p Latino

    2018
    La pequeña brujita (2018) AMZN 1080p Latino

    5.0 1h 43m 2018

    Descargar La pequeña brujita (2018) AMZN 1080p Latino, Mega, Google Drive. La pequeña bruja sólo tiene...

    Director: Mike Schaerer

    Género: Comedia

    Actores: Verena Bosshard

  • El Justiciero 2 (2018) Full 1080p Latino

    2018
    El Justiciero 2 (2018) Full 1080p Latino

    5.0 2h 0m 2018

    Descargar El Justiciero 2 (2018) Full 1080p Latino, Mega, Google Drive. Robert McCall (Denzel Washington)...

    Director: Donald Sparks

    Género: Acción

    Actores: Wesley Pereira

Comentarios 0