El abogado del diablo (1997) [UNRATED] REMUX 1080p Latino – CMHDD

59 vistas
1 estrella2 estrellas3 estrellas4 estrellas5 estrellas (Ninguna valoración todavía)
Cargando...

Información de El abogado del diablo (1997) [UNRATED] REMUX 1080p Latino – CMHDD

Datos de la película

  • Calidad: Full 1080p
  • Audio: Español Latino AC3 2.0 BLURAY - Ingles DTS 5.1 BLURAY
  • Subtitulos: Español Latino PGS
  • Resolución: 1920x1080p
  • Formato: MKV
  • Codec: H.264
  • Encoder: Dracarys
  • Mediainfo: Clic para Mostrar Datos Ver
  • Format                      : Matroska
    Format version              : Version 4
    File size                   : 30.0 GiB
    Duration                    : 2 h 23 min
    Overall bit rate mode       : Variable
    Overall bit rate            : 29.9 Mb/s
    Movie name                  : El abogado del diablo (1997) [UNRATED] REMUX 1080p Latino - CMHDD
    Encoded date                : UTC 2021-01-18 22:05:44
    Writing application         : mkvmerge v51.0.0 ('I Wish') 64-bit
    Writing library             : libebml v1.4.0 + libmatroska v1.6.2

    Video
    ID                          : 1
    Format                      : AVC
    Format/Info                 : Advanced Video Codec
    Format profile              : High@L4.1
    Format settings             : CABAC / 2 Ref Frames
    Format settings, CABAC      : Yes
    Format settings, Reference  : 2 frames
    Codec ID                    : V_MPEG4/ISO/AVC
    Duration                    : 2 h 23 min
    Bit rate mode               : Variable
    Bit rate                    : 26.0 Mb/s
    Width                       : 1 920 pixels
    Height                      : 1 080 pixels
    Display aspect ratio        : 16:9
    Frame rate mode             : Constant
    Frame rate                  : 23.976 (24000/1001) FPS
    Color space                 : YUV
    Chroma subsampling          : 4:2:0
    Bit depth                   : 8 bits
    Scan type                   : Progressive
    Bits/(Pixel*Frame)          : 0.522
    Stream size                 : 26.1 GiB (87%)
    Default                     : Yes
    Forced                      : No

    Audio #1
    ID                          : 2
    Format                      : AC-3
    Format/Info                 : Audio Coding 3
    Commercial name             : Dolby Digital
    Codec ID                    : A_AC3
    Duration                    : 2 h 23 min
    Bit rate mode               : Constant
    Bit rate                    : 192 kb/s
    Channel(s)                  : 2 channels
    Channel layout              : L R
    Sampling rate               : 48.0 kHz
    Frame rate                  : 31.250 FPS (1536 SPF)
    Compression mode            : Lossy
    Stream size                 : 198 MiB (1%)
    Language                    : Spanish
    Service kind                : Complete Main
    Default                     : Yes
    Forced                      : No

    Audio #2
    ID                          : 3
    Format                      : DTS XLL
    Format/Info                 : Digital Theater Systems
    Commercial name             : DTS-HD Master Audio
    Codec ID                    : A_DTS
    Duration                    : 2 h 23 min
    Bit rate mode               : Variable
    Bit rate                    : 3 692 kb/s
    Channel(s)                  : 6 channels
    Channel layout              : C L R Ls Rs LFE
    Sampling rate               : 48.0 kHz
    Frame rate                  : 93.750 FPS (512 SPF)
    Bit depth                   : 24 bits
    Compression mode            : Lossless
    Stream size                 : 3.71 GiB (12%)
    Language                    : English
    Default                     : No
    Forced                      : No

    Text #1
    ID                          : 4
    Format                      : PGS
    Muxing mode                 : zlib
    Codec ID                    : S_HDMV/PGS
    Codec ID/Info               : Picture based subtitle format used on BDs/HD-DVDs
    Duration                    : 2 h 23 min
    Bit rate                    : 34.9 kb/s
    Count of elements           : 4302
    Stream size                 : 35.7 MiB (0%)
    Language                    : Spanish
    Default                     : No
    Forced                      : No

    Text #2
    ID                          : 5
    Format                      : PGS
    Muxing mode                 : zlib
    Codec ID                    : S_HDMV/PGS
    Codec ID/Info               : Picture based subtitle format used on BDs/HD-DVDs
    Duration                    : 1 h 30 min
    Bit rate                    : 72 b/s
    Count of elements           : 6
    Stream size                 : 48.3 KiB (0%)
    Language                    : Spanish
    Default                     : Yes
    Forced                      : No

  • Peso: 30.0 GiB

Sinopsis

Kevin Lomax (Keanu Reeves) es un joven y brillante abogado que nunca ha perdido un caso. Vive en Florida y parece feliz con su esposa, Mary Ann (Charlize Theron). Un día, recibe la visita de un abogado de Nueva York, que representa a un poderoso bufete que tiene la intención de contratarlo. Al frente de la prestigiosa empresa se encuentra John Milton (Al Pacino), un hombre mundano, brillante y carismático, que alberga planes muy oscuros con respecto a Lomax.

Ficha técnica

Video trailer de la película

Enlaces de descarga

Rip de Bluray

Descargar El abogado del diablo (1997) [UNRATED] REMUX 1080p Latino – CMHDD


Aportes de DPeliculasHDmega la pass es:dpeliculashdmega.org Aportes de CinemaniaHD la pass es:cinemaniahdd.com
Guardado en : Drama , Fantasía , Misterio , Suspenso

Películas relacionadas

Comentarios 2
  • Hector Quintero - 20 enero, 2021

    como me registro para axeder a ese post

    • Dracarys - 20 enero, 2021

      En la sección VIP