×

¿Problemas para descargar con Mozilla, EDGE? Deshabilita la opción "Abrir vinculos en una pestaña nueva" tal como lo muestra ésta imagen.

El Abismo Del Infierno (2022) NF WEB-DL 1080p Latino

352 vistas

Información de El Abismo Del Infierno (2022) NF WEB-DL 1080p Latino

Datos de la película

  • Calidad: WEBDL
  • Audio: Se especifica abajo de la Sinopsis
  • Subtitulos: Español Latino SRT- FORZADOS SRT
  • Resolución: 1920x1080p
  • Formato: MKV
  • Codec: H.264
  • Encoder: Melkor
  • Mediainfo: Clic para Mostrar Datos Ver
  • El Abismo Del Infierno (2022) NF WebDL 1080p Latino.mkv
    Format                      : Matroska
    Format version              : Version 4
    File size                   : 4.83 GiB
    Duration                    : 1 h 30 min
    Overall bit rate mode       : Variable
    Overall bit rate            : 7 636 kb/s
    Movie name                  : Hellhole (2022) CinemaniaHDD.Net
    Encoded date                : UTC 2022-10-31 05:45:50
    Writing application         : mkvmerge v56.1.0 ('My Friend') 64-bit
    Writing library             : libebml v1.4.2 + libmatroska v1.6.4
    Attachments                 : CINEMANIAHD.png

    Video
    ID                          : 1
    Format                      : AVC
    Format/Info                 : Advanced Video Codec
    Format profile              : Main@L4
    Format settings             : CABAC / 3 Ref Frames
    Format settings, CABAC      : Yes
    Format settings, Reference  : 3 frames
    Codec ID                    : V_MPEG4/ISO/AVC
    Duration                    : 1 h 30 min
    Bit rate mode               : Variable
    Bit rate                    : 5 800 kb/s
    Maximum bit rate            : 8 700 kb/s
    Width                       : 1 920 pixels
    Height                      : 1 080 pixels
    Display aspect ratio        : 16:9
    Frame rate mode             : Constant
    Frame rate                  : 24.000 FPS
    Color space                 : YUV
    Chroma subsampling          : 4:2:0
    Bit depth                   : 8 bits
    Scan type                   : Progressive
    Bits/(Pixel*Frame)          : 0.117
    Stream size                 : 3.62 GiB (75%)
    Title                       : Web HD1080p [CinemaniaHDD]
    Writing library             : x264 core 148 r2727 7d026e8
    Encoding settings           : cabac=1 / ref=3 / deblock=1:0:0 / analyse=0x1:0x111 / me=umh / subme=10 / psy=1 / psy_rd=1.00:0.00 / mixed_ref=1 / me_range=24 / chroma_me=1 / trellis=2 / 8x8dct=0 / cqm=0 / deadzone=21,11 / fast_pskip=1 / chroma_qp_offset=-2 / threads=8 / lookahead_threads=1 / sliced_threads=0 / nr=0 / decimate=1 / interlaced=0 / bluray_compat=0 / stitchable=1 / constrained_intra=0 / bframes=2 / b_pyramid=0 / b_adapt=2 / b_bias=0 / direct=3 / weightb=1 / open_gop=0 / weightp=2 / keyint=250 / keyint_min=24 / scenecut=0 / intra_refresh=0 / rc_lookahead=48 / rc=2pass / mbtree=1 / bitrate=5800 / ratetol=1.0 / qcomp=0.50 / qpmin=6 / qpmax=51 / qpstep=4 / cplxblur=20.0 / qblur=0.5 / vbv_maxrate=8700 / vbv_bufsize=11600 / nal_hrd=vbr / filler=0 / ip_ratio=1.40 / aq=1:1.00
    Default                     : Yes
    Forced                      : Yes

    Audio #1
    ID                          : 2
    Format                      : AC-3
    Format/Info                 : Audio Coding 3
    Commercial name             : Dolby Digital
    Codec ID                    : A_AC3
    Duration                    : 1 h 30 min
    Bit rate mode               : Constant
    Bit rate                    : 640 kb/s
    Channel(s)                  : 6 channels
    Channel layout              : L R C LFE Ls Rs
    Sampling rate               : 48.0 kHz
    Frame rate                  : 31.250 FPS (1536 SPF)
    Compression mode            : Lossy
    Stream size                 : 415 MiB (8%)
    Title                       : Español Latino AC3 [CinemaniaHDD]
    Language                    : Spanish
    Service kind                : Complete Main
    Default                     : Yes
    Forced                      : Yes

    Audio #2
    ID                          : 3
    Format                      : E-AC-3
    Format/Info                 : Enhanced AC-3
    Commercial name             : Dolby Digital Plus
    Codec ID                    : A_EAC3
    Duration                    : 1 h 30 min
    Bit rate mode               : Constant
    Bit rate                    : 640 kb/s
    Channel(s)                  : 6 channels
    Channel layout              : L R C LFE Ls Rs
    Sampling rate               : 48.0 kHz
    Frame rate                  : 31.250 FPS (1536 SPF)
    Compression mode            : Lossy
    Stream size                 : 415 MiB (8%)
    Title                       : Español Latino EAC3 [CinemaniaHDD]
    Language                    : Spanish
    Service kind                : Complete Main
    Default                     : No
    Forced                      : No

    Audio #3
    ID                          : 4
    Format                      : E-AC-3
    Format/Info                 : Enhanced AC-3
    Commercial name             : Dolby Digital Plus
    Codec ID                    : A_EAC3
    Duration                    : 1 h 30 min
    Bit rate mode               : Constant
    Bit rate                    : 640 kb/s
    Channel(s)                  : 6 channels
    Channel layout              : L R C LFE Ls Rs
    Sampling rate               : 48.0 kHz
    Frame rate                  : 31.250 FPS (1536 SPF)
    Compression mode            : Lossy
    Stream size                 : 415 MiB (8%)
    Title                       : Polaco [CinemaniaHDD]
    Language                    : Polish
    Service kind                : Complete Main
    Default                     : No
    Forced                      : No

    Text #1
    ID                          : 5
    Format                      : UTF-8
    Codec ID                    : S_TEXT/UTF8
    Codec ID/Info               : UTF-8 Plain Text
    Duration                    : 1 h 28 min
    Bit rate                    : 4 b/s
    Count of elements           : 71
    Stream size                 : 3.02 KiB (0%)
    Title                       : Forzados-SRT [CinemaniaHDD]
    Language                    : Spanish
    Default                     : Yes
    Forced                      : Yes

    Text #2
    ID                          : 6
    Format                      : UTF-8
    Codec ID                    : S_TEXT/UTF8
    Codec ID/Info               : UTF-8 Plain Text
    Duration                    : 1 h 28 min
    Bit rate                    : 18 b/s
    Count of elements           : 388
    Stream size                 : 12.1 KiB (0%)
    Title                       : Español-SRT [CinemaniaHDD]
    Language                    : Spanish
    Default                     : No
    Forced                      : No

    Text #3
    ID                          : 7
    Format                      : UTF-8
    Codec ID                    : S_TEXT/UTF8
    Codec ID/Info               : UTF-8 Plain Text
    Duration                    : 1 h 24 min
    Bit rate                    : 26 b/s
    Count of elements           : 646
    Stream size                 : 16.1 KiB (0%)
    Title                       : Ingles-SRT [CinemaniaHDD]
    Language                    : English
    Default                     : No
    Forced                      : No

  • Peso: 4.83 GiB

Sinopsis

Descargar El Abismo Del Infierno (2022) NF WEB-DL 1080p Latino. Marek, un joven policía que se hace pasar por un clérigo, tiene la tarea de averiguar sobre la desaparición de unos presos atormentados en un monasterio cerrado.

Español Latino EAC3 & AC3 5.1 NF – Polaco EAC3 5.1 NF

Ficha técnica

Video trailer de la película

Enlaces de descarga

Rip de Bluray

Descargar El Abismo Del Infierno (2022) NF WEB-DL 1080p Latino




Aportes de DPeliculasHDmega la pass es:dpeliculashdmega.org Aportes de CinemaniaHD la pass es:cinemaniahdd.com Aportes recientes:cinemaniahdd.net
Guardado en : Netflix , Terror

Películas relacionadas

  • La Otra Cara de Dorian (2023) WEB-DL 1080p Latino

    La Otra Cara de Dorian (2023) WEB-DL 1080p Latino

    2023
    La Otra Cara de Dorian (2023) WEB-DL 1080p Latino

    1h 40m 2023

    Descargar La Otra Cara de Dorian (2023) WEB-DL 1080p Latino. Una versión moderna del cuento de Oscar...

    Director: Richard John Taylor

    Género: Drama

    Actores: Triana Terry

  • La melodía del diablo (2023) WEB-DL 1080p Latino

    La melodía del diablo (2023) WEB-DL 1080p Latino

    2023
    La melodía del diablo (2023) WEB-DL 1080p Latino

    1h 35m 2023

    Descargar La melodía del diablo (2023) WEB-DL 1080p Latino. Una joven compositora se encuentra frente...

    Director: Erlingur Thoroddsen

    Género: Terror

    Actores: Salomé Chandler

  • Antichrist (2009) Full HD 1080p SUB-CMHDD

    Antichrist (2009) Full HD 1080p SUB-CMHDD

    2009
    Antichrist (2009) Full HD 1080p SUB-CMHDD

    1h 48m 2009

    Descargar Antichrist (2009) Full HD 1080p SUB-CMHDD. Una pareja sumida en el dolor se retira a una cabaña...

    Director: Tómas Gislason

    Género: Drama

    Actores: Willem Dafoe

  • Antichrist (2009) 1080p SUB-CMHDD

    Antichrist (2009) 1080p SUB-CMHDD

    2009
    Antichrist (2009) 1080p SUB-CMHDD

    1h 48m 2009

    Descargar Antichrist (2009) 1080p SUB-CMHDD. Una pareja sumida en el dolor se retira a una cabaña perdida...

    Director: Tómas Gislason

    Género: Drama

    Actores: Willem Dafoe

descargar El Abismo Del Infierno (2022) NF WEB-DL 1080p Latino WEBDL 1080p gratis, El Abismo Del Infierno (2022) NF WEB-DL 1080p Latino WEBDL mega 1 link, El Abismo Del Infierno (2022) NF WEB-DL 1080p Latino WEBDL pelicula completa, descargar El Abismo Del Infierno (2022) NF WEB-DL 1080p Latino WEBDL gratis en mega.

El Abismo Del Infierno (2022) NF WEB-DL 1080p Latino pelicula full hd, El Abismo Del Infierno (2022) NF WEB-DL 1080p Latino mega latino, El Abismo Del Infierno (2022) NF WEB-DL 1080p Latino 4k latino, El Abismo Del Infierno (2022) NF WEB-DL 1080p Latino pelicula completa, El Abismo Del Infierno (2022) NF WEB-DL 1080p Latino descargar gratis, descargar El Abismo Del Infierno (2022) NF WEB-DL 1080p Latino pelicula latino, El Abismo Del Infierno (2022) NF WEB-DL 1080p Latino 1 link mega, El Abismo Del Infierno (2022) NF WEB-DL 1080p Latino 1 link google drive, El Abismo Del Infierno (2022) NF WEB-DL 1080p Latino hd 1080p latino.
Comentarios 0