×

¿Problemas para descargar con Mozilla, EDGE? Deshabilita la opción "Abrir vinculos en una pestaña nueva" tal como lo muestra ésta imagen.

Ejecutivos Agresivos (2019) PLACEBO Full HD 1080p Latino

316 vistas

Información de Ejecutivos Agresivos (2019) PLACEBO Full HD 1080p Latino

Datos de la película

  • Calidad: Full 1080p
  • Audio: Español Latino AC3 5.1 iTUNES - Ingles DTS 5.1 BLURAY
  • Subtitulos: Español Latino SRT- FORZADOS SRT
  • Resolución: 1920x1080p
  • Formato: MKV
  • Codec: H.264
  • Encoder: CinemaniaHD
  • Mediainfo: Clic para Mostrar Datos Ver
  • Ejecutivos Agresivos (2019) PLACEBO Full HD 1080p Latino.mkv
    Format                      : Matroska
    Format version              : Version 4
    File size                   : 3.79 GiB
    Duration                    : 1 h 25 min
    Overall bit rate mode       : Variable
    Overall bit rate            : 6 321 kb/s
    Movie name                  : Corporate Animals (2019) CinemaniaHDD.Net
    Encoded date                : UTC 2020-06-12 07:10:46
    Writing application         : mkvmerge v46.0.0 ('No Deeper Escape') 64-bit
    Writing library             : libebml v1.3.10 + libmatroska v1.5.2
    Attachments                 : CINEMANIAHD.png

    Video
    ID                          : 1
    Format                      : AVC
    Format/Info                 : Advanced Video Codec
    Format profile              : High@L4.1
    Format settings             : CABAC / 4 Ref Frames
    Format settings, CABAC      : Yes
    Format settings, Reference  : 4 frames
    Codec ID                    : V_MPEG4/ISO/AVC
    Duration                    : 1 h 25 min
    Bit rate                    : 3 268 kb/s
    Width                       : 1 920 pixels
    Height                      : 1 080 pixels
    Display aspect ratio        : 16:9
    Frame rate mode             : Constant
    Frame rate                  : 23.976 (24000/1001) FPS
    Color space                 : YUV
    Chroma subsampling          : 4:2:0
    Bit depth                   : 8 bits
    Scan type                   : Progressive
    Bits/(Pixel*Frame)          : 0.066
    Stream size                 : 1.96 GiB (52%)
    Title                       : Full HD1080p [CinemaniaHDD]
    Writing library             : x264 core 157 r2935 545de2f
    Encoding settings           : cabac=1 / ref=4 / deblock=1:0:0 / analyse=0x3:0x133 / me=tesa / subme=11 / psy=1 / psy_rd=1.00:0.00 / mixed_ref=1 / me_range=24 / chroma_me=1 / trellis=2 / 8x8dct=1 / cqm=0 / deadzone=21,11 / fast_pskip=0 / chroma_qp_offset=-2 / threads=24 / lookahead_threads=6 / sliced_threads=0 / nr=0 / decimate=1 / interlaced=0 / bluray_compat=0 / constrained_intra=0 / bframes=16 / b_pyramid=2 / b_adapt=2 / b_bias=0 / direct=3 / weightb=1 / open_gop=0 / weightp=2 / keyint=240 / keyint_min=24 / scenecut=40 / intra_refresh=0 / rc_lookahead=60 / rc=crf / mbtree=1 / crf=19.0 / qcomp=0.60 / qpmin=0 / qpmax=69 / qpstep=4 / vbv_maxrate=62500 / vbv_bufsize=78125 / crf_max=0.0 / nal_hrd=none / filler=0 / ip_ratio=1.40 / aq=1:1.00
    Default                     : Yes
    Forced                      : No
    Color range                 : Limited
    Color primaries             : BT.709
    Transfer characteristics    : BT.709
    Matrix coefficients         : BT.709

    Audio #1
    ID                          : 2
    Format                      : AC-3
    Format/Info                 : Audio Coding 3
    Commercial name             : Dolby Digital
    Codec ID                    : A_AC3
    Duration                    : 1 h 25 min
    Bit rate mode               : Constant
    Bit rate                    : 384 kb/s
    Channel(s)                  : 6 channels
    Channel layout              : L R C LFE Ls Rs
    Sampling rate               : 48.0 kHz
    Frame rate                  : 31.250 FPS (1536 SPF)
    Compression mode            : Lossy
    Stream size                 : 236 MiB (6%)
    Title                       : Español Latino [CinemaniaHDD]
    Language                    : Spanish
    Service kind                : Complete Main
    Default                     : Yes
    Forced                      : No

    Audio #2
    ID                          : 3
    Format                      : DTS XLL
    Format/Info                 : Digital Theater Systems
    Commercial name             : DTS-HD Master Audio
    Codec ID                    : A_DTS
    Duration                    : 1 h 25 min
    Bit rate mode               : Variable
    Bit rate                    : 2 665 kb/s
    Channel(s)                  : 6 channels
    Channel layout              : C L R Ls Rs LFE
    Sampling rate               : 48.0 kHz
    Frame rate                  : 93.750 FPS (512 SPF)
    Bit depth                   : 24 bits
    Compression mode            : Lossless
    Stream size                 : 1.60 GiB (42%)
    Title                       : Ingles [CinemaniaHDD]
    Language                    : English
    Default                     : No
    Forced                      : No

    Text #1
    ID                          : 4
    Format                      : UTF-8
    Codec ID                    : S_TEXT/UTF8
    Codec ID/Info               : UTF-8 Plain Text
    Duration                    : 1 h 14 min
    Bit rate                    : 0 b/s
    Count of elements           : 2
    Stream size                 : 41.0 Bytes (0%)
    Title                       : Forzados-SRT [CinemaniaHDD]
    Language                    : Spanish
    Default                     : Yes
    Forced                      : No

    Text #2
    ID                          : 5
    Format                      : UTF-8
    Codec ID                    : S_TEXT/UTF8
    Codec ID/Info               : UTF-8 Plain Text
    Duration                    : 1 h 20 min
    Bit rate                    : 80 b/s
    Count of elements           : 1383
    Stream size                 : 47.0 KiB (0%)
    Title                       : Español-SRT [CinemaniaHDD]
    Language                    : Spanish
    Default                     : No
    Forced                      : No

    Text #3
    ID                          : 6
    Format                      : UTF-8
    Codec ID                    : S_TEXT/UTF8
    Codec ID/Info               : UTF-8 Plain Text
    Duration                    : 1 h 25 min
    Bit rate                    : 79 b/s
    Count of elements           : 1852
    Stream size                 : 49.3 KiB (0%)
    Title                       : Ingles-SRT [CinemaniaHDD]
    Language                    : English
    Default                     : No
    Forced                      : No

    Menu
    00:00:00.000                : en:Chapter 01
    00:05:33.958                : en:Chapter 02
    00:14:37.626                : en:Chapter 03
    00:20:02.367                : en:Chapter 04
    00:27:51.252                : en:Chapter 05
    00:34:48.628                : en:Chapter 06
    00:42:49.358                : en:Chapter 07
    00:48:39.416                : en:Chapter 08
    00:56:44.150                : en:Chapter 09
    01:04:40.877                : en:Chapter 10
    01:11:58.314                : en:Chapter 11
    01:20:28.865                : en:Chapter 12

  • Peso: 3.79 GiB

Sinopsis

Descargar Ejecutivos Agresivos (2019) PLACEBO Full HD 1080p Latino. Las catástrofes ocurren cuando el egoísta CEO de una empresa de cubiertos comestibles lidera a su sufrido personal en un viaje de trabajo en equipo corporativo en Nuevo México. Atrapado bajo tierra, este grupo desajustado y descontento debe unirse para sobrevivir.

Ficha técnica

Video trailer de la película

Enlaces de descarga

Rip de Bluray

Descargar Ejecutivos Agresivos (2019) PLACEBO Full HD 1080p Latino




Aportes de DPeliculasHDmega la pass es:dpeliculashdmega.org Aportes de CinemaniaHD la pass es:cinemaniahdd.com

Películas relacionadas

descargar Ejecutivos Agresivos (2019) PLACEBO Full HD 1080p Latino Full 1080p 1080p gratis, Ejecutivos Agresivos (2019) PLACEBO Full HD 1080p Latino Full 1080p mega 1 link, Ejecutivos Agresivos (2019) PLACEBO Full HD 1080p Latino Full 1080p pelicula completa, descargar Ejecutivos Agresivos (2019) PLACEBO Full HD 1080p Latino Full 1080p gratis en mega.

Ejecutivos Agresivos (2019) PLACEBO Full HD 1080p Latino pelicula full hd, Ejecutivos Agresivos (2019) PLACEBO Full HD 1080p Latino mega latino, Ejecutivos Agresivos (2019) PLACEBO Full HD 1080p Latino 4k latino, Ejecutivos Agresivos (2019) PLACEBO Full HD 1080p Latino pelicula completa, Ejecutivos Agresivos (2019) PLACEBO Full HD 1080p Latino descargar gratis, descargar Ejecutivos Agresivos (2019) PLACEBO Full HD 1080p Latino pelicula latino, Ejecutivos Agresivos (2019) PLACEBO Full HD 1080p Latino 1 link mega, Ejecutivos Agresivos (2019) PLACEBO Full HD 1080p Latino 1 link google drive, Ejecutivos Agresivos (2019) PLACEBO Full HD 1080p Latino hd 1080p latino.
Comentarios 0