×

¿Problemas para descargar con Mozilla, EDGE? Deshabilita la opción "Abrir vinculos en una pestaña nueva" tal como lo muestra ésta imagen.

Eine Billion Dollar (2023) Primera Temporada AMZN WEB-DL 1080p Latino

195 vistas

Información de Eine Billion Dollar (2023) Primera Temporada AMZN WEB-DL 1080p Latino

Datos de la película

  • Calidad: 1080p
  • Audio: Español Latino AC3 2.0 WEB-DL - Ingles AC3 5.1 WEB-DL
  • Subtitulos: Español Latino SRT- FORZADOS SRT
  • Resolución: 1920x1080
  • Formato: MKV
  • Codec: H.264
  • Encoder: cinemaniahdd
  • Mediainfo: Clic para Mostrar Datos Ver
  • Eine Billion Dollar T01E01 AMZN WEB-DL 1080p Latino [CNMNHDD].mkv
    Format                      : Matroska
    Format version              : Version 4
    File size                   : 3.50 GiB
    Duration                    : 51 min 43 s
    Overall bit rate            : 9 691 kb/s
    Movie name                  : Un billon de dolares S01E01 - The Inheritance - CinemaniaHDD.Net
    Encoded date                : UTC 2023-11-30 22:15:26
    Writing application         : mkvmerge v56.1.0 ('My Friend') 64-bit
    Writing library             : libebml v1.4.2 + libmatroska v1.6.4

    Video
    ID                          : 1
    Format                      : AVC
    Format/Info                 : Advanced Video Codec
    Format profile              : High@L4
    Format settings             : CABAC / 4 Ref Frames
    Format settings, CABAC      : Yes
    Format settings, Reference  : 4 frames
    Codec ID                    : V_MPEG4/ISO/AVC
    Duration                    : 51 min 43 s
    Bit rate mode               : Constant
    Bit rate                    : 8 856 kb/s
    Nominal bit rate            : 10 000 kb/s
    Width                       : 1 920 pixels
    Height                      : 1 080 pixels
    Display aspect ratio        : 16:9
    Frame rate mode             : Constant
    Frame rate                  : 23.976 (24000/1001) FPS
    Color space                 : YUV
    Chroma subsampling          : 4:2:0
    Bit depth                   : 8 bits
    Scan type                   : Progressive
    Bits/(Pixel*Frame)          : 0.178
    Stream size                 : 3.20 GiB (91%)
    Title                       : CinemaniaHDD
    Default                     : Yes
    Forced                      : No
    Color range                 : Limited
    Color primaries             : BT.709
    Transfer characteristics    : BT.709
    Matrix coefficients         : BT.709

    Audio #1
    ID                          : 2
    Format                      : AC-3
    Format/Info                 : Audio Coding 3
    Commercial name             : Dolby Digital
    Codec ID                    : A_AC3
    Duration                    : 51 min 43 s
    Bit rate mode               : Constant
    Bit rate                    : 384 kb/s
    Channel(s)                  : 2 channels
    Channel layout              : L R
    Sampling rate               : 48.0 kHz
    Frame rate                  : 31.250 FPS (1536 SPF)
    Compression mode            : Lossy
    Stream size                 : 142 MiB (4%)
    Title                       : Español Latino [CinemaniaHDD]
    Language                    : Spanish
    Service kind                : Complete Main
    Default                     : Yes
    Forced                      : No

    Audio #2
    ID                          : 3
    Format                      : E-AC-3
    Format/Info                 : Enhanced AC-3
    Commercial name             : Dolby Digital Plus
    Codec ID                    : A_EAC3
    Duration                    : 51 min 43 s
    Bit rate mode               : Constant
    Bit rate                    : 224 kb/s
    Channel(s)                  : 2 channels
    Channel layout              : L R
    Sampling rate               : 48.0 kHz
    Frame rate                  : 31.250 FPS (1536 SPF)
    Compression mode            : Lossy
    Stream size                 : 82.9 MiB (2%)
    Title                       : Español latino / E-AC3 [CinemaniaHDD]
    Language                    : Spanish
    Service kind                : Complete Main
    Default                     : No
    Forced                      : No

    Audio #3
    ID                          : 4
    Format                      : E-AC-3
    Format/Info                 : Enhanced AC-3
    Commercial name             : Dolby Digital Plus
    Codec ID                    : A_EAC3
    Duration                    : 51 min 43 s
    Bit rate mode               : Constant
    Bit rate                    : 224 kb/s
    Channel(s)                  : 2 channels
    Channel layout              : L R
    Sampling rate               : 48.0 kHz
    Frame rate                  : 31.250 FPS (1536 SPF)
    Compression mode            : Lossy
    Stream size                 : 82.9 MiB (2%)
    Title                       : Inglés [CinemaniaHDD]
    Language                    : English
    Service kind                : Complete Main
    Default                     : No
    Forced                      : No

    Text #1
    ID                          : 5
    Format                      : UTF-8
    Codec ID                    : S_TEXT/UTF8
    Codec ID/Info               : UTF-8 Plain Text
    Duration                    : 48 min 32 s
    Bit rate                    : 0 b/s
    Count of elements           : 3
    Stream size                 : 79.0 Bytes (0%)
    Title                       : Forzados [CinemaniaHDD]
    Language                    : Spanish
    Default                     : Yes
    Forced                      : Yes

    Text #2
    ID                          : 6
    Format                      : UTF-8
    Codec ID                    : S_TEXT/UTF8
    Codec ID/Info               : UTF-8 Plain Text
    Duration                    : 48 min 59 s
    Bit rate                    : 47 b/s
    Count of elements           : 662
    Stream size                 : 17.1 KiB (0%)
    Title                       : Español Latino [CinemaniaHDD]
    Language                    : Spanish
    Default                     : No
    Forced                      : No

    Text #3
    ID                          : 7
    Format                      : UTF-8
    Codec ID                    : S_TEXT/UTF8
    Codec ID/Info               : UTF-8 Plain Text
    Duration                    : 48 min 46 s
    Bit rate                    : 48 b/s
    Count of elements           : 634
    Stream size                 : 17.4 KiB (0%)
    Title                       : Inglés [CinemaniaHDD]
    Language                    : English
    Default                     : No
    Forced                      : No

     

  • Peso: 3.50 GiB Aprox ---- 20 GiB in 6 Chapters.

Sinopsis

A través de una herencia de un billón de dólares, John Fontanellise se convierte en el hombre más rico del mundo, pero viene con una profecía: recuperar el futuro perdido de la humanidad. Oponentes poderosos impedirán que logre su misión.

Ficha técnica

  • Titulo original: Eine Billion Dollar
  • Fecha de lanzamiento: 23-11-2023 (DE, IT)
  • Género: Drama, Series

Video trailer de la película

Enlaces de descarga

Rip de Bluray

Descargar Eine Billion Dollar (2023) Primera Temporada AMZN WEB-DL 1080p Latino




Aportes de DPeliculasHDmega la pass es:dpeliculashdmega.org Aportes de CinemaniaHD la pass es:cinemaniahdd.com Aportes recientes:cinemaniahdd.net
Guardado en : Drama , Series

Películas relacionadas

descargar Eine Billion Dollar (2023) Primera Temporada AMZN WEB-DL 1080p Latino 1080p 1080p gratis, Eine Billion Dollar (2023) Primera Temporada AMZN WEB-DL 1080p Latino 1080p mega 1 link, Eine Billion Dollar (2023) Primera Temporada AMZN WEB-DL 1080p Latino 1080p serie completa, descargar Eine Billion Dollar (2023) Primera Temporada AMZN WEB-DL 1080p Latino 1080p gratis en mega.

Eine Billion Dollar (2023) Primera Temporada AMZN WEB-DL 1080p Latino pelicula full hd, Eine Billion Dollar (2023) Primera Temporada AMZN WEB-DL 1080p Latino mega latino, Eine Billion Dollar (2023) Primera Temporada AMZN WEB-DL 1080p Latino 4k latino, Eine Billion Dollar (2023) Primera Temporada AMZN WEB-DL 1080p Latino pelicula completa, Eine Billion Dollar (2023) Primera Temporada AMZN WEB-DL 1080p Latino descargar gratis, descargar Eine Billion Dollar (2023) Primera Temporada AMZN WEB-DL 1080p Latino pelicula latino, Eine Billion Dollar (2023) Primera Temporada AMZN WEB-DL 1080p Latino 1 link mega, Eine Billion Dollar (2023) Primera Temporada AMZN WEB-DL 1080p Latino 1 link google drive, Eine Billion Dollar (2023) Primera Temporada AMZN WEB-DL 1080p Latino hd 1080p latino.
Comentarios 0