×

¿Problemas para descargar con Mozilla, EDGE? Deshabilita la opción "Abrir vinculos en una pestaña nueva" tal como lo muestra ésta imagen.

Edge of Tomorrow (2014) Full HD 1080p Latino – CMHDD

1.219 vistas

Información de Edge of Tomorrow (2014) Full HD 1080p Latino – CMHDD

Datos de la película

  • Calidad: Full 1080p
  • Audio: Español Latino AC3 5.1 BLURAY - Ingles DTS 5.1 BLURAY
  • Subtitulos: Español Latino SRT- FORZADOS SRT
  • Resolución: 1920x1080p
  • Formato: MKV
  • Codec: H.264
  • Encoder: Dracarys
  • Mediainfo: Clic para Mostrar Datos Ver
  • Format                      : Matroska
    Format version              : Version 4
    File size                   : 8.64 GiB
    Duration                    : 1 h 53 min
    Overall bit rate mode       : Variable
    Overall bit rate            : 10.9 Mb/s
    Movie name                  : Al Filo del Mañana (2014) Full HD Latino - CMHDD
    Encoded date                : UTC 2020-05-28 00:28:05
    Writing application         : mkvmerge v46.0.0 ('No Deeper Escape') 64-bit
    Writing library             : libebml v1.3.10 + libmatroska v1.5.2

    Video
    ID                          : 1
    Format                      : AVC
    Format/Info                 : Advanced Video Codec
    Format profile              : High@L4.1
    Format settings             : CABAC / 4 Ref Frames
    Format settings, CABAC      : Yes
    Format settings, Reference  : 4 frames
    Codec ID                    : V_MPEG4/ISO/AVC
    Duration                    : 1 h 53 min
    Bit rate                    : 5 039 kb/s
    Width                       : 1 920 pixels
    Height                      : 1 080 pixels
    Display aspect ratio        : 16:9
    Frame rate mode             : Constant
    Frame rate                  : 23.976 (24000/1001) FPS
    Color space                 : YUV
    Chroma subsampling          : 4:2:0
    Bit depth                   : 8 bits
    Scan type                   : Progressive
    Bits/(Pixel*Frame)          : 0.101
    Stream size                 : 3.99 GiB (46%)
    Writing library             : x264 core 157 r2935 545de2f
    Encoding settings           : cabac=1 / ref=4 / deblock=1:0:0 / analyse=0x3:0x133 / me=tesa / subme=11 / psy=1 / psy_rd=1.00:0.00 / mixed_ref=1 / me_range=24 / chroma_me=1 / trellis=2 / 8x8dct=1 / cqm=0 / deadzone=21,11 / fast_pskip=0 / chroma_qp_offset=-2 / threads=24 / lookahead_threads=6 / sliced_threads=0 / nr=0 / decimate=1 / interlaced=0 / bluray_compat=0 / constrained_intra=0 / bframes=16 / b_pyramid=2 / b_adapt=2 / b_bias=0 / direct=3 / weightb=1 / open_gop=0 / weightp=2 / keyint=240 / keyint_min=24 / scenecut=40 / intra_refresh=0 / rc_lookahead=60 / rc=crf / mbtree=1 / crf=20.0 / qcomp=0.60 / qpmin=0 / qpmax=69 / qpstep=4 / vbv_maxrate=62500 / vbv_bufsize=78125 / crf_max=0.0 / nal_hrd=none / filler=0 / ip_ratio=1.40 / aq=1:1.00
    Default                     : Yes
    Forced                      : No
    Color range                 : Limited
    Color primaries             : BT.709
    Transfer characteristics    : BT.709
    Matrix coefficients         : BT.709

    Audio #1
    ID                          : 2
    Format                      : AC-3
    Format/Info                 : Audio Coding 3
    Commercial name             : Dolby Digital
    Codec ID                    : A_AC3
    Duration                    : 1 h 53 min
    Bit rate mode               : Constant
    Bit rate                    : 640 kb/s
    Channel(s)                  : 6 channels
    Channel layout              : L R C LFE Ls Rs
    Sampling rate               : 48.0 kHz
    Frame rate                  : 31.250 FPS (1536 SPF)
    Compression mode            : Lossy
    Stream size                 : 520 MiB (6%)
    Language                    : Spanish
    Service kind                : Complete Main
    Default                     : Yes
    Forced                      : No

    Audio #2
    ID                          : 3
    Format                      : DTS XLL
    Format/Info                 : Digital Theater Systems
    Commercial name             : DTS-HD Master Audio
    Codec ID                    : A_DTS
    Duration                    : 1 h 53 min
    Bit rate mode               : Variable
    Bit rate                    : 5 208 kb/s
    Channel(s)                  : 8 channels
    Channel layout              : C L R LFE Lb Rb Lss Rss
    Sampling rate               : 48.0 kHz
    Frame rate                  : 93.750 FPS (512 SPF)
    Bit depth                   : 24 bits
    Compression mode            : Lossless
    Stream size                 : 4.13 GiB (48%)
    Language                    : English
    Default                     : No
    Forced                      : No

    Text #1
    ID                          : 4
    Format                      : UTF-8
    Codec ID                    : S_TEXT/UTF8
    Codec ID/Info               : UTF-8 Plain Text
    Duration                    : 1 h 51 min
    Bit rate                    : 0 b/s
    Count of elements           : 20
    Stream size                 : 464 Bytes (0%)
    Title                       : SRT-Forzados
    Language                    : Spanish
    Default                     : Yes
    Forced                      : Yes

    Text #2
    ID                          : 5
    Format                      : UTF-8
    Codec ID                    : S_TEXT/UTF8
    Codec ID/Info               : UTF-8 Plain Text
    Duration                    : 1 h 45 min
    Bit rate                    : 54 b/s
    Count of elements           : 1434
    Stream size                 : 41.9 KiB (0%)
    Title                       : SRT-Completos
    Language                    : Spanish
    Default                     : No
    Forced                      : No

    Text #3
    ID                          : 6
    Format                      : PGS
    Muxing mode                 : zlib
    Codec ID                    : S_HDMV/PGS
    Codec ID/Info               : Picture based subtitle format used on BDs/HD-DVDs
    Duration                    : 1 h 52 min
    Bit rate                    : 28.7 kb/s
    Count of elements           : 2874
    Stream size                 : 23.2 MiB (0%)
    Title                       : PGS-Completos
    Language                    : Spanish
    Default                     : No
    Forced                      : No

    Menu
    00:00:00.000                : :Chapter 1
    00:10:28.169                : :Chapter 2
    00:17:39.100                : :Chapter 3
    00:24:50.197                : :Chapter 4
    00:35:57.947                : :Chapter 5
    00:46:27.285                : :Chapter 6
    00:54:34.772                : :Chapter 7
    01:04:59.562                : :Chapter 8
    01:12:53.077                : :Chapter 9
    01:23:08.901                : :Chapter 10
    01:32:34.132                : :Chapter 11
    01:42:53.584                : :Chapter 12
    01:45:46.215                : :Chapter 13

  • Peso: 8.64 GiB

Sinopsis

En un futuro no muy lejano, invade la Tierra una raza de extraterrestres invencibles. Al comandante William Cage, un oficial que nunca ha entrado en combate, le encargan una misión casi suicida y resulta muerto. Entra entonces en un bucle temporal, en el que se ve obligado a luchar y morir una y otra vez. Pero las múltiples batallas que libra lo hacen cada vez más hábil y eficaz en su lucha contra los alienígenas. Su compañera de combate es Rita Vrataski, una guerrera de las Fuerzas Especiales. Adaptación del manga de Hiroshi Sakurazaka.

Ficha técnica

Video trailer de la película

Enlaces de descarga

Rip de Bluray

Descargar Edge of Tomorrow (2014) Full HD 1080p Latino – CMHDD




Aportes de DPeliculasHDmega la pass es:dpeliculashdmega.org Aportes de CinemaniaHD la pass es:cinemaniahdd.com

Películas relacionadas

descargar Edge of Tomorrow (2014) Full HD 1080p Latino – CMHDD Full 1080p 1080p gratis, Edge of Tomorrow (2014) Full HD 1080p Latino – CMHDD Full 1080p mega 1 link, Edge of Tomorrow (2014) Full HD 1080p Latino – CMHDD Full 1080p pelicula completa, descargar Edge of Tomorrow (2014) Full HD 1080p Latino – CMHDD Full 1080p gratis en mega.

Edge of Tomorrow (2014) Full HD 1080p Latino – CMHDD pelicula full hd, Edge of Tomorrow (2014) Full HD 1080p Latino – CMHDD mega latino, Edge of Tomorrow (2014) Full HD 1080p Latino – CMHDD 4k latino, Edge of Tomorrow (2014) Full HD 1080p Latino – CMHDD pelicula completa, Edge of Tomorrow (2014) Full HD 1080p Latino – CMHDD descargar gratis, descargar Edge of Tomorrow (2014) Full HD 1080p Latino – CMHDD pelicula latino, Edge of Tomorrow (2014) Full HD 1080p Latino – CMHDD 1 link mega, Edge of Tomorrow (2014) Full HD 1080p Latino – CMHDD 1 link google drive, Edge of Tomorrow (2014) Full HD 1080p Latino – CMHDD hd 1080p latino.
Comentarios 4
  • Erik - 12 enero, 2022

    Muchas gracias por resubirla

  • mauricio giron - 25 junio, 2020

    como le hago para ser vip

    • Dracarys - 25 junio, 2020

      Háblame por mensaje privado en el chat…

  • ocpgaiden - 08 junio, 2020

    Gracias por Al filo del mañana full hd, saludos