×

¿Problemas para descargar con Mozilla, EDGE? Deshabilita la opción "Abrir vinculos en una pestaña nueva" tal como lo muestra ésta imagen.

Eastern Promises (2007) REMUX 1080p Latino – CMHDD

196 vistas

Información de Eastern Promises (2007) REMUX 1080p Latino – CMHDD

Datos de la película

  • Calidad: Full 1080p
  • Audio: Español Latino DTS 5.1 BLURAY - Ingles DTS 5.1 BLURAY
  • Subtitulos: Español Latino PGS
  • Resolución: 1920x1080p
  • Formato: MKV
  • Codec: H.264
  • Encoder: Dracarys
  • Mediainfo: Clic para Mostrar Datos Ver
  • Format                      : Matroska
    Format version              : Version 4
    File size                   : 17.5 GiB
    Duration                    : 1 h 40 min
    Overall bit rate mode       : Variable
    Overall bit rate            : 24.9 Mb/s
    Movie name                  : Eastern Promises (2007) REMUX 1080p Latino - CMHDD
    Encoded date                : UTC 2021-05-30 06:50:21
    Writing application         : mkvmerge v56.1.0 ('My Friend') 64-bit
    Writing library             : libebml v1.4.2 + libmatroska v1.6.4
    Cover                       : Yes
    Attachments                 : cover.jpg

    Video
    ID                          : 1
    ID in the original source m : 4113 (0x1011)
    Format                      : VC-1
    Format profile              : Advanced@L3
    Codec ID                    : V_MS/VFW/FOURCC / WVC1
    Codec ID/Hint               : Microsoft
    Duration                    : 1 h 40 min
    Bit rate                    : 20.5 Mb/s
    Width                       : 1 920 pixels
    Height                      : 1 080 pixels
    Display aspect ratio        : 16:9
    Frame rate mode             : Constant
    Frame rate                  : 23.976 (24000/1001) FPS
    Color space                 : YUV
    Chroma subsampling          : 4:2:0
    Bit depth                   : 8 bits
    Scan type                   : Progressive
    Compression mode            : Lossy
    Bits/(Pixel*Frame)          : 0.412
    Stream size                 : 14.4 GiB (82%)
    Default                     : Yes
    Forced                      : No
    Original source medium      : Blu-ray

    Audio #1
    ID                          : 2
    ID in the original source m : 4352 (0x1100)
    Format                      : DTS XLL
    Format/Info                 : Digital Theater Systems
    Commercial name             : DTS-HD Master Audio
    Codec ID                    : A_DTS
    Duration                    : 1 h 40 min
    Bit rate mode               : Variable
    Bit rate                    : 3 667 kb/s
    Channel(s)                  : 6 channels
    Channel layout              : C L R Ls Rs LFE
    Sampling rate               : 48.0 kHz
    Frame rate                  : 93.750 FPS (512 SPF)
    Bit depth                   : 24 bits
    Compression mode            : Lossless
    Stream size                 : 2.58 GiB (15%)
    Language                    : English
    Default                     : No
    Forced                      : No
    Original source medium      : Blu-ray

    Audio #2
    ID                          : 3
    ID in the original source m : 4353 (0x1101)
    Format                      : DTS
    Format/Info                 : Digital Theater Systems
    Codec ID                    : A_DTS
    Duration                    : 1 h 40 min
    Bit rate mode               : Constant
    Bit rate                    : 768 kb/s
    Channel(s)                  : 6 channels
    Channel layout              : C L R Ls Rs LFE
    Sampling rate               : 48.0 kHz
    Frame rate                  : 93.750 FPS (512 SPF)
    Bit depth                   : 24 bits
    Compression mode            : Lossy
    Stream size                 : 552 MiB (3%)
    Language                    : Spanish
    Default                     : Yes
    Forced                      : No
    Original source medium      : Blu-ray

    Text #1
    ID                          : 4
    ID in the original source m : 4609 (0x1201)
    Format                      : PGS
    Muxing mode                 : zlib
    Codec ID                    : S_HDMV/PGS
    Codec ID/Info               : Picture based subtitle format used on BDs/HD-DVDs
    Duration                    : 1 h 34 min
    Bit rate                    : 23.8 kb/s
    Count of elements           : 1836
    Stream size                 : 16.1 MiB (0%)
    Language                    : Spanish
    Default                     : No
    Forced                      : No
    Original source medium      : Blu-ray

    Text #2
    ID                          : 5
    ID in the original source m : 4612 (0x1204)
    Format                      : PGS
    Muxing mode                 : zlib
    Codec ID                    : S_HDMV/PGS
    Codec ID/Info               : Picture based subtitle format used on BDs/HD-DVDs
    Duration                    : 1 h 33 min
    Bit rate                    : 3 142 b/s
    Count of elements           : 320
    Stream size                 : 2.11 MiB (0%)
    Language                    : Spanish
    Default                     : No
    Forced                      : No
    Original source medium      : Blu-ray

    Menu
    00:00:00.000                : Chapter 01
    00:04:45.118                : Chapter 02
    00:08:12.783                : Chapter 03
    00:14:39.378                : Chapter 04
    00:21:33.917                : Chapter 05
    00:29:05.785                : Chapter 06
    00:32:26.527                : Chapter 07
    00:37:51.894                : Chapter 08
    00:43:23.934                : Chapter 09
    00:47:28.679                : Chapter 10
    00:54:33.353                : Chapter 11
    00:56:50.824                : Chapter 12
    01:02:38.588                : Chapter 13
    01:09:58.319                : Chapter 14
    01:14:17.077                : Chapter 15
    01:20:57.561                : Chapter 16
    01:25:19.948                : Chapter 17
    01:27:28.159                : Chapter 18
    01:33:57.298                : Chapter 19
    01:35:33.936                : Chapter 20

  • Peso: 17.5 GiB

Sinopsis

El misterioso y atractivo Nikolai es el chófer de una importante familia mafiosa de Europa Oriental. Semyon, el jefe del clan, detrás de una sonrisa encantadora, esconde una naturaleza fría y cruel. La estabilidad familiar se tambalea por culpa de Kirill, su alocado hijo, que hace más caso a Nikolai que a su propio padre. La vida de Nikolai cambia de golpe cuando conoce a Anna, una comadrona que trabaja en un hospital de Londres. Anna, muy afectada por la muerte en el parto de una adolescente, decide buscar a la familia sirviéndose del diario que la chica dejó escrito en ruso. Lo malo es que sus indagaciones desencadenan la ira de los mafiosos.

Ficha técnica

Video trailer de la película

Enlaces de descarga

Rip de Bluray

Descargar Eastern Promises (2007) REMUX 1080p Latino – CMHDD


Aportes de DPeliculasHDmega la pass es:dpeliculashdmega.org Aportes de CinemaniaHD la pass es:cinemaniahdd.com
Guardado en : Crimen , Misterio , Suspenso

Películas relacionadas

descargar Eastern Promises (2007) REMUX 1080p Latino – CMHDD Full 1080p 1080p gratis, Eastern Promises (2007) REMUX 1080p Latino – CMHDD Full 1080p mega 1 link, Eastern Promises (2007) REMUX 1080p Latino – CMHDD Full 1080p pelicula completa, descargar Eastern Promises (2007) REMUX 1080p Latino – CMHDD Full 1080p gratis en mega.

Eastern Promises (2007) REMUX 1080p Latino – CMHDD pelicula full hd, Eastern Promises (2007) REMUX 1080p Latino – CMHDD mega latino, Eastern Promises (2007) REMUX 1080p Latino – CMHDD 4k latino, Eastern Promises (2007) REMUX 1080p Latino – CMHDD pelicula completa, Eastern Promises (2007) REMUX 1080p Latino – CMHDD descargar gratis, descargar Eastern Promises (2007) REMUX 1080p Latino – CMHDD pelicula latino, Eastern Promises (2007) REMUX 1080p Latino – CMHDD 1 link mega, Eastern Promises (2007) REMUX 1080p Latino – CMHDD 1 link google drive, Eastern Promises (2007) REMUX 1080p Latino – CMHDD hd 1080p latino.
Comentarios 0