Eastern Promises (2007) Full HD 1080p Latino – CMHDD

49 vistas
1 estrella2 estrellas3 estrellas4 estrellas5 estrellas (Ninguna valoración todavía)
Cargando...

Información de Eastern Promises (2007) Full HD 1080p Latino – CMHDD

Datos de la película

  • Calidad: Full 1080p
  • Audio: Español Latino DTS 5.1 BLURAY - Ingles DTS 5.1 BLURAY
  • Subtitulos: Español Latino PGS
  • Resolución: 1920x1080p
  • Formato: MKV
  • Codec: H.264
  • Encoder: Dracarys
  • Mediainfo: Clic para Mostrar Datos Ver
  • Format                      : Matroska
    Format version              : Version 4
    File size                   : 8.30 GiB
    Duration                    : 1 h 40 min
    Overall bit rate mode       : Variable
    Overall bit rate            : 11.8 Mb/s
    Movie name                  : Eastern Promises (2007) Full HD 1080p Latino - CMHDD
    Encoded date                : UTC 2021-06-13 03:40:10
    Writing application         : mkvmerge v56.1.0 ('My Friend') 64-bit
    Writing library             : libebml v1.4.2 + libmatroska v1.6.4

    Video
    ID                          : 1
    Format                      : AVC
    Format/Info                 : Advanced Video Codec
    Format profile              : High@L4.1
    Format settings             : CABAC / 4 Ref Frames
    Format settings, CABAC      : Yes
    Format settings, Reference  : 4 frames
    Codec ID                    : V_MPEG4/ISO/AVC
    Duration                    : 1 h 40 min
    Bit rate                    : 7 374 kb/s
    Width                       : 1 920 pixels
    Height                      : 1 080 pixels
    Display aspect ratio        : 16:9
    Frame rate mode             : Constant
    Frame rate                  : 23.976 (24000/1001) FPS
    Color space                 : YUV
    Chroma subsampling          : 4:2:0
    Bit depth                   : 8 bits
    Scan type                   : Progressive
    Bits/(Pixel*Frame)          : 0.148
    Stream size                 : 5.18 GiB (62%)
    Writing library             : x264 core 157 r2935 545de2f
    Encoding settings           : cabac=1 / ref=4 / deblock=1:0:0 / analyse=0x3:0x133 / me=tesa / subme=11 / psy=1 / psy_rd=1.00:0.00 / mixed_ref=1 / me_range=24 / chroma_me=1 / trellis=2 / 8x8dct=1 / cqm=0 / deadzone=21,11 / fast_pskip=0 / chroma_qp_offset=-2 / threads=24 / lookahead_threads=6 / sliced_threads=0 / nr=0 / decimate=1 / interlaced=0 / bluray_compat=0 / constrained_intra=0 / bframes=16 / b_pyramid=2 / b_adapt=2 / b_bias=0 / direct=3 / weightb=1 / open_gop=0 / weightp=2 / keyint=240 / keyint_min=24 / scenecut=40 / intra_refresh=0 / rc_lookahead=60 / rc=crf / mbtree=1 / crf=20.0 / qcomp=0.60 / qpmin=0 / qpmax=69 / qpstep=4 / vbv_maxrate=62500 / vbv_bufsize=78125 / crf_max=0.0 / nal_hrd=none / filler=0 / ip_ratio=1.40 / aq=1:1.00
    Default                     : Yes
    Forced                      : No
    Color range                 : Limited
    Color primaries             : BT.709
    Transfer characteristics    : BT.709
    Matrix coefficients         : BT.709

    Audio #1
    ID                          : 2
    Format                      : DTS
    Format/Info                 : Digital Theater Systems
    Codec ID                    : A_DTS
    Duration                    : 1 h 40 min
    Bit rate mode               : Constant
    Bit rate                    : 768 kb/s
    Channel(s)                  : 6 channels
    Channel layout              : C L R Ls Rs LFE
    Sampling rate               : 48.0 kHz
    Frame rate                  : 93.750 FPS (512 SPF)
    Bit depth                   : 24 bits
    Compression mode            : Lossy
    Stream size                 : 552 MiB (6%)
    Language                    : Spanish
    Default                     : Yes
    Forced                      : No

    Audio #2
    ID                          : 3
    Format                      : DTS XLL
    Format/Info                 : Digital Theater Systems
    Commercial name             : DTS-HD Master Audio
    Codec ID                    : A_DTS
    Duration                    : 1 h 40 min
    Bit rate mode               : Variable
    Bit rate                    : 3 667 kb/s
    Channel(s)                  : 6 channels
    Channel layout              : C L R Ls Rs LFE
    Sampling rate               : 48.0 kHz
    Frame rate                  : 93.750 FPS (512 SPF)
    Bit depth                   : 24 bits
    Compression mode            : Lossless
    Stream size                 : 2.58 GiB (31%)
    Language                    : English
    Default                     : No
    Forced                      : No

    Text #1
    ID                          : 4
    Format                      : PGS
    Muxing mode                 : zlib
    Codec ID                    : S_HDMV/PGS
    Codec ID/Info               : Picture based subtitle format used on BDs/HD-DVDs
    Duration                    : 1 h 34 min
    Bit rate                    : 23.8 kb/s
    Count of elements           : 1836
    Stream size                 : 16.1 MiB (0%)
    Language                    : Spanish
    Default                     : No
    Forced                      : No

    Text #2
    ID                          : 5
    Format                      : PGS
    Muxing mode                 : zlib
    Codec ID                    : S_HDMV/PGS
    Codec ID/Info               : Picture based subtitle format used on BDs/HD-DVDs
    Duration                    : 1 h 33 min
    Bit rate                    : 3 142 b/s
    Count of elements           : 320
    Stream size                 : 2.11 MiB (0%)
    Language                    : Spanish
    Default                     : No
    Forced                      : No

    Menu
    00:00:00.000                : :Chapter 1
    00:04:45.160                : :Chapter 2
    00:08:12.867                : :Chapter 3
    00:14:39.462                : :Chapter 4
    00:21:34.001                : :Chapter 5
    00:29:05.869                : :Chapter 6
    00:32:26.611                : :Chapter 7
    00:37:51.978                : :Chapter 8
    00:43:24.018                : :Chapter 9
    00:47:28.721                : :Chapter 10
    00:54:33.395                : :Chapter 11
    00:56:50.866                : :Chapter 12
    01:02:38.630                : :Chapter 13
    01:09:58.361                : :Chapter 14
    01:14:17.161                : :Chapter 15
    01:20:57.603                : :Chapter 16
    01:25:19.990                : :Chapter 17
    01:27:28.243                : :Chapter 18
    01:33:57.340                : :Chapter 19
    01:35:34.020                : :Chapter 20

  • Peso: 8.30 GiB

Sinopsis

El misterioso y atractivo Nikolai es el chófer de una importante familia mafiosa de Europa Oriental. Semyon, el jefe del clan, detrás de una sonrisa encantadora, esconde una naturaleza fría y cruel. La estabilidad familiar se tambalea por culpa de Kirill, su alocado hijo, que hace más caso a Nikolai que a su propio padre. La vida de Nikolai cambia de golpe cuando conoce a Anna, una comadrona que trabaja en un hospital de Londres. Anna, muy afectada por la muerte en el parto de una adolescente, decide buscar a la familia sirviéndose del diario que la chica dejó escrito en ruso. Lo malo es que sus indagaciones desencadenan la ira de los mafiosos.

Ficha técnica

Video trailer de la película

Enlaces de descarga

Rip de Bluray

Descargar Eastern Promises (2007) Full HD 1080p Latino – CMHDD




Aportes de DPeliculasHDmega la pass es:dpeliculashdmega.org Aportes de CinemaniaHD la pass es:cinemaniahdd.com
Guardado en : Crimen , Misterio , Suspenso

Películas relacionadas

  • Gossip Girl (2021) Temporada 1 HMAX WEB-DL 1080p

    Gossip Girl (2021) Temporada 1 HMAX WEB-DL 1080p

    2021
    Gossip Girl (2021) Temporada 1 HMAX WEB-DL 1080p

    5.0 0h 0m 2021

    Ocho años después de que el sitio web original se apagara, una nueva generación de adolescentes de...

    Director: Joshua Safran

    Género: Drama

    Actores: Zión Moreno

  • En liberté! (2018) WEB-DL 1080p Latino

    En liberté! (2018) WEB-DL 1080p Latino

    2018
    En liberté! (2018) WEB-DL 1080p Latino

    5.0 1h 48m 2018

    El detective Yvonne es la viuda del jefe de policía Santi, un héroe local en un pueblo de la Riviera...

    Director: Pierre Salvadori

    Género: Comedia

    Actores: Vincent Elbaz

  • The Hatred (2017) WEB-DL 1080p Latino

    The Hatred (2017) WEB-DL 1080p Latino

    2017
    The Hatred (2017) WEB-DL 1080p Latino

    5.0 1h 34m 2017

    Cuatro mujeres jóvenes viajan a la nueva casa de campo de su profesor universitario para una escapada...

    Director: Michael G. Kehoe

    Género: Suspenso

    Actores: Tim DeZarn

  • S.W.A.T (2019) WEB-DL 1080p Latino

    S.W.A.T (2019) WEB-DL 1080p Latino

    2019
    S.W.A.T (2019) WEB-DL 1080p Latino

    5.0 0h 0m 2019

    Una Unidad de Fuerzas Especiales ha organizado una serie de ejercicios de combate para seleccionar a...

    Director: Ding Sheng

    Género: Acción

    Actores: Zhao Xiaorui

Eastern Promises (2007) Full HD 1080p Latino – CMHDD pelicula full hd, Eastern Promises (2007) Full HD 1080p Latino – CMHDD mega latino, Eastern Promises (2007) Full HD 1080p Latino – CMHDD 4k latino, Eastern Promises (2007) Full HD 1080p Latino – CMHDD pelicula completa, Eastern Promises (2007) Full HD 1080p Latino – CMHDD descargar gratis, descargar Eastern Promises (2007) Full HD 1080p Latino – CMHDD pelicula latino, Eastern Promises (2007) Full HD 1080p Latino – CMHDD 1 link mega, Eastern Promises (2007) Full HD 1080p Latino – CMHDD 1 link google drive, Eastern Promises (2007) Full HD 1080p Latino – CMHDD hd 1080p latino.
Comentarios 0