Duro de matar Un buen día para morir (2013) Full 1080p Latino

1.342 vistas
1 estrella2 estrellas3 estrellas4 estrellas5 estrellas (2 votos, promedio: 3,00 de 5)
Cargando…

Información de Duro de matar Un buen día para morir (2013) Full 1080p Latino

Datos de la película

  • Calidad: Full 1080p
  • Audio: Español Latino AC3 5.1 BLURAY - Ingles DTS 5.1 BLURAY
  • Subtitulos: Español Latino PGS - Ingles PGS
  • Resolución: 1920x1080p
  • Formato: MKV
  • Codec: H.264
  • Encoder: Dracarys
  • Mediainfo: Clic para Mostrar Datos Ver
  • Format                                   : Matroska
    Format version                           : Version 4 / Version 2
    File size                                : 12.2 GiB
    Duration                                 : 1 h 41 min
    Overall bit rate                         : 17.2 Mb/s
    Movie name                               : CinemaniaHDD.net
    Encoded date                             : UTC 2018-12-07 01:26:55 / UTC 2018-12-05T15:58:10Z
    Writing application                      : mkvmerge v15.0.0 ('Duel with the Devil') 64-bit
    Writing library                          : libebml v1.3.5 + libmatroska v1.4.5 / Lavf57.7.2

    Video
    ID                                       : 1
    Format                                   : AVC
    Format/Info                              : Advanced Video Codec
    Format profile                           : [email protected]
    Format settings                          : CABAC / 4 Ref Frames
    Format settings, CABAC                   : Yes
    Format settings, RefFrames               : 4 frames
    Codec ID                                 : V_MPEG4/ISO/AVC
    Duration                                 : 1 h 41 min
    Bit rate                                 : 14.9 Mb/s
    Width                                    : 1 920 pixels
    Height                                   : 1 080 pixels
    Display aspect ratio                     : 16:9
    Frame rate mode                          : Constant
    Frame rate                               : 23.976 (24000/1001) FPS
    Color space                              : YUV
    Chroma subsampling                       : 4:2:0
    Bit depth                                : 8 bits
    Scan type                                : Progressive
    Bits/(Pixel*Frame)                       : 0.301
    Stream size                              : 10.6 GiB (87%)
    Writing library                          : x264 core 148 r2708 86b7198
    Encoding settings                        : cabac=1 / ref=4 / deblock=1:0:0 / analyse=0x3:0x133 / me=esa / subme=10 / psy=1 / psy_rd=1.00:0.00 / mixed_ref=1 / me_range=24 / chroma_me=1 / trellis=2 / 8x8dct=1 / cqm=0 / deadzone=21,11 / fast_pskip=1 / chroma_qp_offset=-2 / threads=34 / lookahead_threads=5 / sliced_threads=0 / nr=0 / decimate=1 / interlaced=0 / bluray_compat=0 / constrained_intra=0 / bframes=8 / b_pyramid=2 / b_adapt=2 / b_bias=0 / direct=3 / weightb=1 / open_gop=0 / weightp=2 / keyint=240 / keyint_min=24 / scenecut=40 / intra_refresh=0 / rc_lookahead=60 / rc=crf / mbtree=1 / crf=20.0 / qcomp=0.60 / qpmin=0 / qpmax=69 / qpstep=4 / vbv_maxrate=62500 / vbv_bufsize=78125 / crf_max=0.0 / nal_hrd=none / filler=0 / ip_ratio=1.40 / aq=1:1.00
    Language                                 : English
    Default                                  : Yes
    Forced                                   : No
    Color range                              : Limited
    Color primaries                          : BT.709
    Transfer characteristics                 : BT.709
    Matrix coefficients                      : BT.709
    Statistics Tags Issue                    : mkvmerge v15.0.0 ('Duel with the Devil') 64-bit 2018-12-07 01:26:55 / mkvmerge v15.0.0 ('Duel with the Devil') 64-bit 2018-12-07 01:26:55 / UTC 2018-12-05T15:58:10Z
    FromStats_BitRate                        : 15269734
    FromStats_Duration                       : 01:41:11.316000000
    FromStats_FrameCount                     : 145566
    FromStats_StreamSize                     : 11588422931

    Audio #1
    ID                                       : 2
    Format                                   : AC-3
    Format/Info                              : Audio Coding 3
    Format settings, Endianness              : Big
    Codec ID                                 : A_AC3
    Duration                                 : 1 h 41 min
    Bit rate mode                            : Constant
    Bit rate                                 : 448 kb/s
    Channel(s)                               : 6 channels
    Channel positions                        : Front: L C R, Side: L R, LFE
    Sampling rate                            : 48.0 kHz
    Frame rate                               : 31.250 FPS (1536 SPF)
    Bit depth                                : 16 bits
    Compression mode                         : Lossy
    Stream size                              : 324 MiB (3%)
    Language                                 : Spanish
    Service kind                             : Complete Main
    Default                                  : Yes
    Forced                                   : No
    Statistics Tags Issue                    : mkvmerge v15.0.0 ('Duel with the Devil') 64-bit 2018-12-07 01:26:55 / mkvmerge v15.0.0 ('Duel with the Devil') 64-bit 2018-12-07 01:26:55 / UTC 2018-12-05T15:58:10Z
    FromStats_BitRate                        : 448000
    FromStats_Duration                       : 01:41:11.424000000
    FromStats_FrameCount                     : 189732
    FromStats_StreamSize                     : 339999744

    Audio #2
    ID                                       : 3
    Format                                   : DTS
    Format/Info                              : Digital Theater Systems
    Format profile                           : ES Matrix / Core
    Mode                                     : 16
    Format settings, Endianness              : Big
    Codec ID                                 : A_DTS
    Duration                                 : 1 h 41 min
    Bit rate mode                            : Constant
    Bit rate                                 : 1 509 kb/s
    Channel(s)                               : 7 channels / 6 channels
    Channel positions                        : Front: L C R, Side: L R, Back: C, LFE / Front: L C R, Side: L R, LFE
    Sampling rate                            : 48.0 kHz
    Frame rate                               : 93.750 FPS (512 SPF)
    Bit depth                                : 24 bits
    Compression mode                         : Lossy
    Stream size                              : 1.07 GiB (9%)
    Language                                 : English
    Default                                  : No
    Forced                                   : No
    Statistics Tags Issue                    : mkvmerge v15.0.0 ('Duel with the Devil') 64-bit 2018-12-07 01:26:55 / mkvmerge v15.0.0 ('Duel with the Devil') 64-bit 2018-12-07 01:26:55 / UTC 2018-12-05T15:58:10Z
    FromStats_BitRate                        : 1509000
    FromStats_Duration                       : 01:41:11.392000000
    FromStats_FrameCount                     : 569193
    FromStats_StreamSize                     : 1145216316

    Text #1
    ID                                       : 4
    Format                                   : PGS
    Muxing mode                              : zlib
    Codec ID                                 : S_HDMV/PGS
    Codec ID/Info                            : Picture based subtitle format used on BDs/HD-DVDs
    Language                                 : English
    Default                                  : No
    Forced                                   : No
    Statistics Tags Issue                    : mkvmerge v15.0.0 ('Duel with the Devil') 64-bit 2018-12-07 01:26:55 / mkvmerge v15.0.0 ('Duel with the Devil') 64-bit 2018-12-07 01:26:55 / UTC 2018-12-05T15:58:10Z
    FromStats_BitRate                        : 23784
    FromStats_Duration                       : 01:40:33.189000000
    FromStats_FrameCount                     : 2266
    FromStats_StreamSize                     : 17937315

    Text #2
    ID                                       : 5
    Format                                   : PGS
    Muxing mode                              : zlib
    Codec ID                                 : S_HDMV/PGS
    Codec ID/Info                            : Picture based subtitle format used on BDs/HD-DVDs
    Language                                 : Spanish
    Default                                  : No
    Forced                                   : No
    Statistics Tags Issue                    : mkvmerge v15.0.0 ('Duel with the Devil') 64-bit 2018-12-07 01:26:55 / mkvmerge v15.0.0 ('Duel with the Devil') 64-bit 2018-12-07 01:26:55 / UTC 2018-12-05T15:58:10Z
    FromStats_BitRate                        : 18334
    FromStats_Duration                       : 01:40:15.463000000
    FromStats_FrameCount                     : 1803
    FromStats_StreamSize                     : 13786412

    Menu
    00:00:00.000                             : :Chapter 1
    00:02:45.999                             : :Chapter 2
    00:05:02.177                             : :Chapter 3
    00:09:36.284                             : :Chapter 4
    00:12:13.942                             : :Chapter 5
    00:15:25.633                             : :Chapter 6
    00:18:03.082                             : :Chapter 7
    00:22:31.433                             : :Chapter 8
    00:28:31.460                             : :Chapter 9
    00:32:28.947                             : :Chapter 10
    00:36:05.997                             : :Chapter 11
    00:39:53.766                             : :Chapter 12
    00:42:20.788                             : :Chapter 13
    00:46:04.845                             : :Chapter 14
    00:50:31.111                             : :Chapter 15
    00:53:21.782                             : :Chapter 16
    00:57:05.672                             : :Chapter 17
    01:01:46.745                             : :Chapter 18
    01:05:03.775                             : :Chapter 19
    01:10:24.220                             : :Chapter 20
    01:14:05.149                             : :Chapter 21
    01:17:50.624                             : :Chapter 22
    01:20:18.230                             : :Chapter 23
    01:24:06.041                             : :Chapter 24
    01:26:18.131                             : :Chapter 25
    01:28:05.697                             : :Chapter 26
    01:32:38.011                             : :Chapter 27
    01:35:25.178                             : :Chapter 28

     

  • Peso: 12.2 GiB

Sinopsis

Conservando la destreza y la actitud perseverante características de las anteriores entregas, que le han convertido en el mayor rival de todos los criminales que atentan contra la libertad de la humanidad y que han permitiendo la salvación de ésta en distintas situaciones y circunstancias, John McClane deberá viajar a Rusia para rescatar a su hijo que se encuentra encerrado en una prisión bajo las órdenes de un déspota líder ruso. Padre e hijo tendrán que unir fuerzas para luchar contra su adversario, conseguir liberarse y mantenerse con vida. Así, los protagonistas se verán envueltos en una sucesión de extrema hostilidad que no solo pondrá su vida en peligro, también la del resto de ciudadanos. Su deber será hacer todo lo posible por conservar algo tan esencial en la sociedad actual como es la democracia, una libertad de la que el perverso y autoritario líder antagonista querrá apoderarse.

Ficha técnica

Video trailer de la película

Enlaces de descarga

Rip de Bluray

Descargar Duro de matar Un buen día para morir (2013) Full 1080p Latino




Aportes de DPeliculasHDmega la pass es:dpeliculashdmega.org Aportes de CinemaniaHD la pass es:cinemaniahdd.com

Películas relacionadas

  • Miss Bala (2019) 1080p Latino

    2019
    Miss Bala (2019) 1080p Latino

    0.0 1h 44m 2019

    La ganadora de un concurso de belleza se ve obligada a trabajar para un jefe del crimen después de ser...

    Director: Catherine Hardwicke

    Género: Acción

    Actores: Roberto Sosa

  • The Final Wish (2018) Full 1080p Subtitulado

    2019
    The Final Wish (2018) Full 1080p Subtitulado

    0.0 1h 35m 2019

    Descargar The Final Wish (2018) Full 1080p Subtitulado. Aaron (Michael Welch) es un abogado con problemas...

    Director: Timothy Woodward Jr.

    Género: FULL 1080p Plateadas

    Actores: Tony Todd

Comentarios 1
  • ocpgaiden - 12 diciembre, 2018

    Gracias por duro de matar 5, saludos