Duro de matar 4.0 (2007) Full 1080p Latino

1.104 vistas
1 estrella2 estrellas3 estrellas4 estrellas5 estrellas (3 votos, promedio: 3,67 de 5)
Cargando…

Información de Duro de matar 4.0 (2007) Full 1080p Latino

Datos de la película

  • Calidad: Full 1080p
  • Audio: Español Latino AC3 5.1 BLURAY - Ingles DTS 5.1 BLURAY
  • Subtitulos: Español Latino PGS - Ingles PGS
  • Resolución: 1920x1080p
  • Formato: MKV
  • Codec: H.264
  • Encoder: Dracarys
  • Mediainfo: Clic para Mostrar Datos Ver
  • Format                                   : Matroska
    Format version                           : Version 4 / Version 2
    File size                                : 11.7 GiB
    Duration                                 : 2 h 8 min
    Overall bit rate                         : 13.0 Mb/s
    Movie name                               : CinemaniaHDD.net
    Encoded date                             : UTC 2018-12-07 01:24:43 / UTC 2018-12-05T21:07:43Z
    Writing application                      : mkvmerge v15.0.0 ('Duel with the Devil') 64-bit
    Writing library                          : libebml v1.3.5 + libmatroska v1.4.5 / Lavf57.7.2

    Video
    ID                                       : 1
    Format                                   : AVC
    Format/Info                              : Advanced Video Codec
    Format profile                           : [email protected]
    Format settings                          : CABAC / 4 Ref Frames
    Format settings, CABAC                   : Yes
    Format settings, RefFrames               : 4 frames
    Codec ID                                 : V_MPEG4/ISO/AVC
    Duration                                 : 2 h 8 min
    Bit rate                                 : 10.8 Mb/s
    Width                                    : 1 920 pixels
    Height                                   : 1 080 pixels
    Display aspect ratio                     : 16:9
    Frame rate mode                          : Constant
    Frame rate                               : 23.976 (24000/1001) FPS
    Color space                              : YUV
    Chroma subsampling                       : 4:2:0
    Bit depth                                : 8 bits
    Scan type                                : Progressive
    Bits/(Pixel*Frame)                       : 0.216
    Stream size                              : 9.68 GiB (83%)
    Writing library                          : x264 core 148 r2708 86b7198
    Encoding settings                        : cabac=1 / ref=4 / deblock=1:0:0 / analyse=0x3:0x133 / me=esa / subme=10 / psy=1 / psy_rd=1.00:0.00 / mixed_ref=1 / me_range=24 / chroma_me=1 / trellis=2 / 8x8dct=1 / cqm=0 / deadzone=21,11 / fast_pskip=1 / chroma_qp_offset=-2 / threads=34 / lookahead_threads=5 / sliced_threads=0 / nr=0 / decimate=1 / interlaced=0 / bluray_compat=0 / constrained_intra=0 / bframes=8 / b_pyramid=2 / b_adapt=2 / b_bias=0 / direct=3 / weightb=1 / open_gop=0 / weightp=2 / keyint=240 / keyint_min=24 / scenecut=40 / intra_refresh=0 / rc_lookahead=60 / rc=crf / mbtree=1 / crf=20.0 / qcomp=0.60 / qpmin=0 / qpmax=69 / qpstep=4 / vbv_maxrate=62500 / vbv_bufsize=78125 / crf_max=0.0 / nal_hrd=none / filler=0 / ip_ratio=1.40 / aq=1:1.00
    Language                                 : English
    Default                                  : Yes
    Forced                                   : No
    Color range                              : Limited
    Color primaries                          : BT.709
    Transfer characteristics                 : BT.709
    Matrix coefficients                      : BT.709
    Statistics Tags Issue                    : mkvmerge v15.0.0 ('Duel with the Devil') 64-bit 2018-12-07 01:24:43 / mkvmerge v15.0.0 ('Duel with the Devil') 64-bit 2018-12-07 01:24:43 / UTC 2018-12-05T21:07:43Z
    FromStats_BitRate                        : 10990752
    FromStats_Duration                       : 02:08:44.050000000
    FromStats_FrameCount                     : 185192
    FromStats_StreamSize                     : 10611640677

    Audio #1
    ID                                       : 2
    Format                                   : AC-3
    Format/Info                              : Audio Coding 3
    Format settings, Endianness              : Big
    Codec ID                                 : A_AC3
    Duration                                 : 2 h 8 min
    Bit rate mode                            : Constant
    Bit rate                                 : 448 kb/s
    Channel(s)                               : 6 channels
    Channel positions                        : Front: L C R, Side: L R, LFE
    Sampling rate                            : 48.0 kHz
    Frame rate                               : 31.250 FPS (1536 SPF)
    Bit depth                                : 16 bits
    Compression mode                         : Lossy
    Stream size                              : 413 MiB (3%)
    Language                                 : Spanish
    Service kind                             : Complete Main
    Default                                  : Yes
    Forced                                   : No
    Statistics Tags Issue                    : mkvmerge v15.0.0 ('Duel with the Devil') 64-bit 2018-12-07 01:24:43 / mkvmerge v15.0.0 ('Duel with the Devil') 64-bit 2018-12-07 01:24:43 / UTC 2018-12-05T21:07:43Z
    FromStats_BitRate                        : 448000
    FromStats_Duration                       : 02:08:44.160000000
    FromStats_FrameCount                     : 241380
    FromStats_StreamSize                     : 432552960

    Audio #2
    ID                                       : 3
    Format                                   : DTS
    Format/Info                              : Digital Theater Systems
    Mode                                     : 16
    Format settings, Endianness              : Big
    Codec ID                                 : A_DTS
    Duration                                 : 2 h 8 min
    Bit rate mode                            : Constant
    Bit rate                                 : 1 509 kb/s
    Channel(s)                               : 6 channels
    Channel positions                        : Front: L C R, Side: L R, LFE
    Sampling rate                            : 48.0 kHz
    Frame rate                               : 93.750 FPS (512 SPF)
    Bit depth                                : 24 bits
    Compression mode                         : Lossy
    Stream size                              : 1.36 GiB (12%)
    Language                                 : English
    Default                                  : No
    Forced                                   : No
    Statistics Tags Issue                    : mkvmerge v15.0.0 ('Duel with the Devil') 64-bit 2018-12-07 01:24:43 / mkvmerge v15.0.0 ('Duel with the Devil') 64-bit 2018-12-07 01:24:43 / UTC 2018-12-05T21:07:43Z
    FromStats_BitRate                        : 1508999
    FromStats_Duration                       : 02:08:44.118000000
    FromStats_FrameCount                     : 724136
    FromStats_StreamSize                     : 1456961632

    Text #1
    ID                                       : 4
    Format                                   : PGS
    Muxing mode                              : zlib
    Codec ID                                 : S_HDMV/PGS
    Codec ID/Info                            : Picture based subtitle format used on BDs/HD-DVDs
    Language                                 : English
    Default                                  : No
    Forced                                   : No
    Statistics Tags Issue                    : mkvmerge v15.0.0 ('Duel with the Devil') 64-bit 2018-12-07 01:24:43 / mkvmerge v15.0.0 ('Duel with the Devil') 64-bit 2018-12-07 01:24:43 / UTC 2018-12-05T21:07:43Z
    FromStats_BitRate                        : 35725
    FromStats_Duration                       : 02:05:16.578000000
    FromStats_FrameCount                     : 3044
    FromStats_StreamSize                     : 33566806

    Text #2
    ID                                       : 5
    Format                                   : PGS
    Muxing mode                              : zlib
    Codec ID                                 : S_HDMV/PGS
    Codec ID/Info                            : Picture based subtitle format used on BDs/HD-DVDs
    Language                                 : Spanish
    Default                                  : No
    Forced                                   : No
    Statistics Tags Issue                    : mkvmerge v15.0.0 ('Duel with the Devil') 64-bit 2018-12-07 01:24:43 / mkvmerge v15.0.0 ('Duel with the Devil') 64-bit 2018-12-07 01:24:43 / UTC 2018-12-05T21:07:43Z
    FromStats_BitRate                        : 27146
    FromStats_Duration                       : 02:03:19.252000000
    FromStats_FrameCount                     : 2496
    FromStats_StreamSize                     : 25107699

    Menu
    00:00:00.000                             : :Chapter 1
    00:03:53.150                             : :Chapter 2
    00:06:18.587                             : :Chapter 3
    00:07:49.177                             : :Chapter 4
    00:11:31.566                             : :Chapter 5
    00:15:16.124                             : :Chapter 6
    00:17:57.535                             : :Chapter 7
    00:20:47.580                             : :Chapter 8
    00:25:55.971                             : :Chapter 9
    00:27:30.190                             : :Chapter 10
    00:30:03.010                             : :Chapter 11
    00:31:27.844                             : :Chapter 12
    00:33:47.192                             : :Chapter 13
    00:38:16.419                             : :Chapter 14
    00:41:04.379                             : :Chapter 15
    00:45:43.032                             : :Chapter 16
    00:52:16.258                             : :Chapter 17
    00:55:26.740                             : :Chapter 18
    00:58:02.479                             : :Chapter 19
    01:00:47.227                             : :Chapter 20
    01:02:30.038                             : :Chapter 21
    01:08:15.717                             : :Chapter 22
    01:12:31.472                             : :Chapter 23
    01:17:01.408                             : :Chapter 24
    01:18:28.370                             : :Chapter 25
    01:21:30.302                             : :Chapter 26
    01:25:52.314                             : :Chapter 27
    01:32:45.351                             : :Chapter 28
    01:36:50.305                             : :Chapter 29
    01:39:47.815                             : :Chapter 30
    01:45:02.588                             : :Chapter 31
    01:46:22.793                             : :Chapter 32
    01:51:21.508                             : :Chapter 33
    01:56:39.034                             : :Chapter 34
    01:58:12.877                             : :Chapter 35
    02:01:46.299                             : :Chapter 36

     

  • Peso: 11.7 GiB

Sinopsis

En Estados Unidos, la infraestructura de ordenadores que controla todo tipo de comunicaciones, transportes y energías sufre un devastador parón por parte de un grupo terrorista. El cerebro que se esconde tras esta trama ha tenido en cuenta hasta el más mínimo detalle de este devastador plan. Con lo que no había contado era con John McClane (Bruce Willis), un policía de la vieja escuela que conoce una o dos cosas acerca de cómo frustrar amenazas terroristas, el hombre adecuado para este tipo de trabajos…

Ficha técnica

Video trailer de la película

Enlaces de descarga

Rip de Bluray

Descargar Duro de matar 4.0 (2007) Full 1080p Latino




Aportes de DPeliculasHDmega la pass es:dpeliculashdmega.org Aportes de CinemaniaHD la pass es:cinemaniahdd.com

Películas relacionadas

  • Close (2019) NF 1080p Latino

    2019
    Close (2019) NF 1080p Latino

    0.0 1h 34m 2019

    A Sam (Rapace), una experta guardaespaldas acostumbrada a territorios en guerra, le asignan un trabajo...

    Director: Vicky Jewson

    Género: Acción

    Actores: Sophie Nélisse

  • Peloton (1986) Full 1080p Latino

    1986
    Peloton (1986) Full 1080p Latino

    0.0 2h 0m 1986

    Descargar Peloton (1986) Full 1080p Latino, Mega, Google Drive, Torrent. Chris Taylor es un ingenuo joven...

    Director: Tim Minear

    Género: Acción

    Actores: Willem Dafoe

  • Hunter Killer (2018) WEB-DL 1080p Latino

    2018
    Hunter Killer (2018) WEB-DL 1080p Latino

    5.0 2h 2m 2018

    Un capitán de submarinos norteamericano hace equipo junto a los Navy Seals para intentar rescatar al...

    Director: Donovan Marsh

    Género: Acción

    Actores: Zane Holtz

  • Liga de la Justicia (2017) HD 1080p Latino

    2017
    Liga de la Justicia (2017) HD 1080p Latino

    4.0 2h 1m 2017

    Descargar Liga de la Justicia (2017) HD 1080p Latino, Mega, Google Drive, Torrent. Motivado por la fe...

    Director: Zack Snyder

    Género: Acción

    Actores: Sergi Constance

  • Escuadrón suicida (2016) Extended 1080p Latino

    2016
    Escuadrón suicida (2016) Extended 1080p Latino

    5.0 2h 3m 2016

    Descargar Escuadrón suicida (2016) Extended 1080p Latino, Mega, Google Drive, Torrent. Mientras el gobierno...

    Director: Shane B. Scott

    Género: Acción

    Actores: William Hainsworth

Comentarios 1
  • ocpgaiden - 12 diciembre, 2018

    A mi gusto, la mejor de las cinco peliculas, saludos