Duro de matar 3 la venganza (1995) Full 1080p Latino

884 vistas
1 estrella2 estrellas3 estrellas4 estrellas5 estrellas (2 votos, promedio: 3,00 de 5)
Cargando…

Información de Duro de matar 3 la venganza (1995) Full 1080p Latino

Datos de la película

  • Calidad:
  • Audio: Español Latino AC3 5.1 BLURAY - Ingles DTS 5.1 BLURAY
  • Subtitulos: Español Latino PGS - Ingles PGS
  • Resolución: 1920x1080p
  • Formato: MKV
  • Codec: H.264
  • Encoder: Dracarys
  • Mediainfo: Clic para Mostrar Datos Ver
  • Format                                   : Matroska
    Format version                           : Version 4 / Version 2
    File size                                : 12.1 GiB
    Duration                                 : 2 h 8 min
    Overall bit rate                         : 13.5 Mb/s
    Movie name                               : CinemaniaHDD.net
    Encoded date                             : UTC 2018-12-07 01:17:34 / UTC 2018-12-06T02:02:29Z
    Writing application                      : mkvmerge v15.0.0 ('Duel with the Devil') 64-bit
    Writing library                          : libebml v1.3.5 + libmatroska v1.4.5 / Lavf57.7.2

    Video
    ID                                       : 1
    Format                                   : AVC
    Format/Info                              : Advanced Video Codec
    Format profile                           : [email protected]
    Format settings                          : CABAC / 4 Ref Frames
    Format settings, CABAC                   : Yes
    Format settings, RefFrames               : 4 frames
    Codec ID                                 : V_MPEG4/ISO/AVC
    Duration                                 : 2 h 8 min
    Bit rate                                 : 11.3 Mb/s
    Width                                    : 1 920 pixels
    Height                                   : 1 080 pixels
    Display aspect ratio                     : 16:9
    Frame rate mode                          : Constant
    Frame rate                               : 23.976 (24000/1001) FPS
    Color space                              : YUV
    Chroma subsampling                       : 4:2:0
    Bit depth                                : 8 bits
    Scan type                                : Progressive
    Bits/(Pixel*Frame)                       : 0.227
    Stream size                              : 10.1 GiB (84%)
    Writing library                          : x264 core 148 r2708 86b7198
    Encoding settings                        : cabac=1 / ref=4 / deblock=1:0:0 / analyse=0x3:0x133 / me=esa / subme=10 / psy=1 / psy_rd=1.00:0.00 / mixed_ref=1 / me_range=24 / chroma_me=1 / trellis=2 / 8x8dct=1 / cqm=0 / deadzone=21,11 / fast_pskip=1 / chroma_qp_offset=-2 / threads=34 / lookahead_threads=5 / sliced_threads=0 / nr=0 / decimate=1 / interlaced=0 / bluray_compat=0 / constrained_intra=0 / bframes=8 / b_pyramid=2 / b_adapt=2 / b_bias=0 / direct=3 / weightb=1 / open_gop=0 / weightp=2 / keyint=240 / keyint_min=24 / scenecut=40 / intra_refresh=0 / rc_lookahead=60 / rc=crf / mbtree=1 / crf=20.0 / qcomp=0.60 / qpmin=0 / qpmax=69 / qpstep=4 / vbv_maxrate=62500 / vbv_bufsize=78125 / crf_max=0.0 / nal_hrd=none / filler=0 / ip_ratio=1.40 / aq=1:1.00
    Language                                 : English
    Default                                  : Yes
    Forced                                   : No
    Color range                              : Limited
    Color primaries                          : BT.709
    Transfer characteristics                 : BT.709
    Matrix coefficients                      : BT.709
    Statistics Tags Issue                    : mkvmerge v15.0.0 ('Duel with the Devil') 64-bit 2018-12-07 01:17:34 / mkvmerge v15.0.0 ('Duel with the Devil') 64-bit 2018-12-07 01:17:34 / UTC 2018-12-06T02:02:29Z
    FromStats_BitRate                        : 11493877
    FromStats_Duration                       : 02:08:31.704000000
    FromStats_FrameCount                     : 184896
    FromStats_StreamSize                     : 11079672788

    Audio #1
    ID                                       : 2
    Format                                   : AC-3
    Format/Info                              : Audio Coding 3
    Format settings, Endianness              : Big
    Codec ID                                 : A_AC3
    Duration                                 : 2 h 8 min
    Bit rate mode                            : Constant
    Bit rate                                 : 448 kb/s
    Channel(s)                               : 6 channels
    Channel positions                        : Front: L C R, Side: L R, LFE
    Sampling rate                            : 48.0 kHz
    Frame rate                               : 31.250 FPS (1536 SPF)
    Bit depth                                : 16 bits
    Compression mode                         : Lossy
    Stream size                              : 412 MiB (3%)
    Language                                 : Spanish
    Service kind                             : Complete Main
    Default                                  : Yes
    Forced                                   : No
    Statistics Tags Issue                    : mkvmerge v15.0.0 ('Duel with the Devil') 64-bit 2018-12-07 01:17:34 / mkvmerge v15.0.0 ('Duel with the Devil') 64-bit 2018-12-07 01:17:34 / UTC 2018-12-06T02:02:29Z
    FromStats_BitRate                        : 448000
    FromStats_Duration                       : 02:04:28.480000000
    FromStats_FrameCount                     : 233390
    FromStats_StreamSize                     : 418234880

    Audio #2
    ID                                       : 3
    Format                                   : DTS
    Format/Info                              : Digital Theater Systems
    Mode                                     : 16
    Format settings, Endianness              : Big
    Codec ID                                 : A_DTS
    Duration                                 : 2 h 8 min
    Bit rate mode                            : Constant
    Bit rate                                 : 1 509 kb/s
    Channel(s)                               : 6 channels
    Channel positions                        : Front: L C R, Side: L R, LFE
    Sampling rate                            : 48.0 kHz
    Frame rate                               : 93.750 FPS (512 SPF)
    Bit depth                                : 24 bits
    Compression mode                         : Lossy
    Delay relative to video                  : 2 ms
    Stream size                              : 1.35 GiB (11%)
    Language                                 : English
    Default                                  : No
    Forced                                   : No
    Statistics Tags Issue                    : mkvmerge v15.0.0 ('Duel with the Devil') 64-bit 2018-12-07 01:17:34 / mkvmerge v15.0.0 ('Duel with the Devil') 64-bit 2018-12-07 01:17:34 / UTC 2018-12-06T02:02:29Z
    FromStats_BitRate                        : 1509000
    FromStats_Duration                       : 02:08:31.701000000
    FromStats_FrameCount                     : 722972
    FromStats_StreamSize                     : 1454619664

    Text #1
    ID                                       : 4
    Format                                   : PGS
    Muxing mode                              : zlib
    Codec ID                                 : S_HDMV/PGS
    Codec ID/Info                            : Picture based subtitle format used on BDs/HD-DVDs
    Language                                 : English
    Default                                  : No
    Forced                                   : No
    Statistics Tags Issue                    : mkvmerge v15.0.0 ('Duel with the Devil') 64-bit 2018-12-07 01:17:34 / mkvmerge v15.0.0 ('Duel with the Devil') 64-bit 2018-12-07 01:17:34 / UTC 2018-12-06T02:02:29Z
    FromStats_BitRate                        : 79401
    FromStats_Duration                       : 02:00:24.301000000
    FromStats_FrameCount                     : 3488
    FromStats_StreamSize                     : 71702357

    Text #2
    ID                                       : 5
    Format                                   : PGS
    Muxing mode                              : zlib
    Codec ID                                 : S_HDMV/PGS
    Codec ID/Info                            : Picture based subtitle format used on BDs/HD-DVDs
    Language                                 : Spanish
    Default                                  : No
    Forced                                   : No
    Statistics Tags Issue                    : mkvmerge v15.0.0 ('Duel with the Devil') 64-bit 2018-12-07 01:17:34 / mkvmerge v15.0.0 ('Duel with the Devil') 64-bit 2018-12-07 01:17:34 / UTC 2018-12-06T02:02:29Z
    FromStats_BitRate                        : 59077
    FromStats_Duration                       : 01:59:37.504000000
    FromStats_FrameCount                     : 3265
    FromStats_StreamSize                     : 53003754

    Text #3
    ID                                       : 6
    Format                                   : PGS
    Muxing mode                              : zlib
    Codec ID                                 : S_HDMV/PGS
    Codec ID/Info                            : Picture based subtitle format used on BDs/HD-DVDs
    Title                                    : Forzados
    Language                                 : Spanish
    Default                                  : Yes
    Forced                                   : Yes
    Statistics Tags Issue                    : mkvmerge v15.0.0 ('Duel with the Devil') 64-bit 2018-12-07 01:17:34 / mkvmerge v15.0.0 ('Duel with the Devil') 64-bit 2018-12-07 01:17:34 / UTC 2018-12-06T02:02:29Z
    FromStats_BitRate                        : 1646
    FromStats_Duration                       : 01:54:58.850000000
    FromStats_FrameCount                     : 102
    FromStats_StreamSize                     : 1419799

    Menu
    00:00:00.000                             : :Chapter 1
    00:00:53.845                             : :Chapter 2
    00:01:53.989                             : :Chapter 3
    00:03:50.981                             : :Chapter 4
    00:07:58.144                             : :Chapter 5
    00:09:09.466                             : :Chapter 6
    00:13:38.151                             : :Chapter 7
    00:16:53.596                             : :Chapter 8
    00:22:55.374                             : :Chapter 9
    00:27:32.526                             : :Chapter 10
    00:32:39.499                             : :Chapter 11
    00:37:31.583                             : :Chapter 12
    00:40:18.249                             : :Chapter 13
    00:43:39.033                             : :Chapter 14
    00:48:48.300                             : :Chapter 15
    00:52:04.330                             : :Chapter 16
    00:52:38.739                             : :Chapter 17
    00:56:09.825                             : :Chapter 18
    00:58:38.932                             : :Chapter 19
    01:02:57.148                             : :Chapter 20
    01:04:43.630                             : :Chapter 21
    01:07:44.811                             : :Chapter 22
    01:11:36.375                             : :Chapter 23
    01:17:05.121                             : :Chapter 24
    01:20:17.646                             : :Chapter 25
    01:21:17.498                             : :Chapter 26
    01:24:42.661                             : :Chapter 27
    01:27:43.300                             : :Chapter 28
    01:28:20.670                             : :Chapter 29
    01:31:47.711                             : :Chapter 30
    01:32:35.508                             : :Chapter 31
    01:34:18.862                             : :Chapter 32
    01:39:24.417                             : :Chapter 33
    01:40:45.248                             : :Chapter 34
    01:43:52.935                             : :Chapter 35
    01:47:53.550                             : :Chapter 36
    01:53:03.527                             : :Chapter 37
    01:55:59.453                             : :Chapter 38
    01:59:27.202                             : :Chapter 39
    02:00:27.303                             : :Chapter 40

     

  • Peso: 12.1 GiB

Sinopsis

Un hombre que se llama a sí mismo “Simon” inicia una oleada de terror por las calles de Nueva York. Hará detonar una serie de bombas por la ciudad a menos que el agente John McClane acceda a jugar a un juego llamado “Simón dice”. Con la ayuda de Zeus, un electricista del Harlem, comienza una trepidante carrera para averiguar las adivinanzas y las intenciones del terrorista

Ficha técnica

Video trailer de la película

Enlaces de descarga

Rip de Bluray

Descargar Duro de matar 3 la venganza (1995) Full 1080p Latino




Aportes de DPeliculasHDmega la pass es:dpeliculashdmega.org Aportes de CinemaniaHD la pass es:cinemaniahdd.com

Películas relacionadas

  • El Reino de los Supermanes (2019) 1080p Latino

    2019
    El Reino de los Supermanes (2019) 1080p Latino

    5.0 1h 27m 2019

    Descargar El Reino de los Supermanes (2019) 1080p Latino, Mega, Google Drive, Torrent. Superman ha muerto...

    Director: Sam Liu

    Género: Acción

    Actores: Trevor Devall

  • El Reino (2018) HD 1080p Español

    2018
    El Reino (2018) HD 1080p Español

    0.0 2h 15m 2018

    Descargar El Reino (2018) HD 1080p Español, Mega, Google Drive, Torrent. Manuel (Antonio de la Torre),...

    Director: Rodrigo Sorogoyen

    Género: Castellano

    Actores: Paco Revilla

  • Hunter Killer (2018) HD 1080p Latino

    2018
    Hunter Killer (2018) HD 1080p Latino

    3.0 2h 2m 2018

    Descargar Hunter Killer (2018) HD 1080p Latino, Mega, Google Drive, Torrent. Un capitán de submarinos...

    Director: Donovan Marsh

    Género: Acción

    Actores: Zane Holtz

  • Bernie the Dolphin (2018) WEB-DL 1080p Latino

    2018
    Bernie the Dolphin (2018) WEB-DL 1080p Latino

    0.0 1h 28m 2018

    Ubicada en San Agustín, Florida, trata sobre un hermano y una hermana que se hacen amigos de un delfín...

    Director: Kirk Harris

    Género: Acción

    Actores: Stelio Savante

  • Close (2019) NF 1080p Latino

    2019
    Close (2019) NF 1080p Latino

    5.0 1h 34m 2019

    A Sam (Rapace), una experta guardaespaldas acostumbrada a territorios en guerra, le asignan un trabajo...

    Director: Vicky Jewson

    Género: Acción

    Actores: Sophie Nélisse

Comentarios 1
  • ocpgaiden - 12 diciembre, 2018

    Gracias por Duro de matar 3, google drive, saludos