Duro de matar 2 (1990) Full 1080p Latino

977 vistas
1 estrella2 estrellas3 estrellas4 estrellas5 estrellas (2 votos, promedio: 3,00 de 5)
Cargando…

Información de Duro de matar 2 (1990) Full 1080p Latino

Datos de la película

  • Calidad: Full 1080p
  • Audio: Español Latino AC3 5.1 BLURAY - Ingles DTS 5.1 BLURAY
  • Subtitulos: Español Latino PGS - Ingles PGS
  • Resolución: 1920x1080p
  • Formato: MKV
  • Codec: H.264
  • Encoder: Dracarys
  • Mediainfo: Clic para Mostrar Datos Ver
  • Format                                   : Matroska
    Format version                           : Version 4 / Version 2
    File size                                : 6.43 GiB
    Duration                                 : 2 h 3 min
    Overall bit rate                         : 7 463 kb/s
    Movie name                               : CinemaniaHDD.net
    Encoded date                             : UTC 2018-12-07 01:12:29 / UTC 2018-12-06T12:54:36Z
    Writing application                      : mkvmerge v15.0.0 ('Duel with the Devil') 64-bit
    Writing library                          : libebml v1.3.5 + libmatroska v1.4.5 / Lavf57.7.2

    Video
    ID                                       : 1
    Format                                   : AVC
    Format/Info                              : Advanced Video Codec
    Format profile                           : [email protected]
    Format settings                          : CABAC / 4 Ref Frames
    Format settings, CABAC                   : Yes
    Format settings, RefFrames               : 4 frames
    Codec ID                                 : V_MPEG4/ISO/AVC
    Duration                                 : 2 h 3 min
    Bit rate                                 : 5 357 kb/s
    Width                                    : 1 920 pixels
    Height                                   : 1 080 pixels
    Display aspect ratio                     : 16:9
    Frame rate mode                          : Constant
    Frame rate                               : 23.976 (24000/1001) FPS
    Color space                              : YUV
    Chroma subsampling                       : 4:2:0
    Bit depth                                : 8 bits
    Scan type                                : Progressive
    Bits/(Pixel*Frame)                       : 0.108
    Stream size                              : 4.62 GiB (72%)
    Writing library                          : x264 core 148 r2708 86b7198
    Encoding settings                        : cabac=1 / ref=4 / deblock=1:0:0 / analyse=0x3:0x133 / me=esa / subme=10 / psy=1 / psy_rd=1.00:0.00 / mixed_ref=1 / me_range=24 / chroma_me=1 / trellis=2 / 8x8dct=1 / cqm=0 / deadzone=21,11 / fast_pskip=1 / chroma_qp_offset=-2 / threads=34 / lookahead_threads=5 / sliced_threads=0 / nr=0 / decimate=1 / interlaced=0 / bluray_compat=0 / constrained_intra=0 / bframes=8 / b_pyramid=2 / b_adapt=2 / b_bias=0 / direct=3 / weightb=1 / open_gop=0 / weightp=2 / keyint=240 / keyint_min=24 / scenecut=40 / intra_refresh=0 / rc_lookahead=60 / rc=crf / mbtree=1 / crf=20.0 / qcomp=0.60 / qpmin=0 / qpmax=69 / qpstep=4 / vbv_maxrate=62500 / vbv_bufsize=78125 / crf_max=0.0 / nal_hrd=none / filler=0 / ip_ratio=1.40 / aq=1:1.00
    Language                                 : English
    Default                                  : Yes
    Forced                                   : No
    Color range                              : Limited
    Color primaries                          : BT.709
    Transfer characteristics                 : BT.709
    Matrix coefficients                      : BT.709
    Statistics Tags Issue                    : mkvmerge v15.0.0 ('Duel with the Devil') 64-bit 2018-12-07 01:12:29 / mkvmerge v15.0.0 ('Duel with the Devil') 64-bit 2018-12-07 01:12:29 / UTC 2018-12-06T12:54:36Z
    FromStats_BitRate                        : 5469697
    FromStats_Duration                       : 02:03:21.394000000
    FromStats_FrameCount                     : 177456
    FromStats_StreamSize                     : 5060423341

    Audio #1
    ID                                       : 2
    Format                                   : AC-3
    Format/Info                              : Audio Coding 3
    Format settings, Endianness              : Big
    Codec ID                                 : A_AC3
    Duration                                 : 2 h 3 min
    Bit rate mode                            : Constant
    Bit rate                                 : 448 kb/s
    Channel(s)                               : 6 channels
    Channel positions                        : Front: L C R, Side: L R, LFE
    Sampling rate                            : 48.0 kHz
    Frame rate                               : 31.250 FPS (1536 SPF)
    Bit depth                                : 16 bits
    Compression mode                         : Lossy
    Delay relative to video                  : 24 ms
    Stream size                              : 395 MiB (6%)
    Language                                 : Spanish
    Service kind                             : Complete Main
    Default                                  : Yes
    Forced                                   : No
    Statistics Tags Issue                    : mkvmerge v15.0.0 ('Duel with the Devil') 64-bit 2018-12-07 01:12:29 / mkvmerge v15.0.0 ('Duel with the Devil') 64-bit 2018-12-07 01:12:29 / UTC 2018-12-06T12:54:36Z
    FromStats_BitRate                        : 448000
    FromStats_Duration                       : 02:03:22.048000000
    FromStats_FrameCount                     : 231314
    FromStats_StreamSize                     : 414514688

    Audio #2
    ID                                       : 3
    Format                                   : DTS
    Format/Info                              : Digital Theater Systems
    Mode                                     : 16
    Format settings, Endianness              : Big
    Codec ID                                 : A_DTS
    Duration                                 : 2 h 3 min
    Bit rate mode                            : Constant
    Bit rate                                 : 1 509 kb/s
    Channel(s)                               : 6 channels
    Channel positions                        : Front: L C R, Side: L R, LFE
    Sampling rate                            : 48.0 kHz
    Frame rate                               : 93.750 FPS (512 SPF)
    Bit depth                                : 24 bits
    Compression mode                         : Lossy
    Delay relative to video                  : 2 ms
    Stream size                              : 1.30 GiB (20%)
    Language                                 : English
    Default                                  : No
    Forced                                   : No
    Statistics Tags Issue                    : mkvmerge v15.0.0 ('Duel with the Devil') 64-bit 2018-12-07 01:12:29 / mkvmerge v15.0.0 ('Duel with the Devil') 64-bit 2018-12-07 01:12:29 / UTC 2018-12-06T12:54:36Z
    FromStats_BitRate                        : 1508999
    FromStats_Duration                       : 02:03:21.387000000
    FromStats_FrameCount                     : 693880
    FromStats_StreamSize                     : 1396086560

    Text #1
    ID                                       : 4
    Format                                   : PGS
    Muxing mode                              : zlib
    Codec ID                                 : S_HDMV/PGS
    Codec ID/Info                            : Picture based subtitle format used on BDs/HD-DVDs
    Language                                 : English
    Default                                  : No
    Forced                                   : No
    Statistics Tags Issue                    : mkvmerge v15.0.0 ('Duel with the Devil') 64-bit 2018-12-07 01:12:29 / mkvmerge v15.0.0 ('Duel with the Devil') 64-bit 2018-12-07 01:12:29 / UTC 2018-12-06T12:54:36Z
    FromStats_BitRate                        : 64743
    FromStats_Duration                       : 01:58:37.152000000
    FromStats_FrameCount                     : 3038
    FromStats_StreamSize                     : 57598636

    Text #2
    ID                                       : 5
    Format                                   : PGS
    Muxing mode                              : zlib
    Codec ID                                 : S_HDMV/PGS
    Codec ID/Info                            : Picture based subtitle format used on BDs/HD-DVDs
    Language                                 : Spanish
    Default                                  : No
    Forced                                   : No
    Statistics Tags Issue                    : mkvmerge v15.0.0 ('Duel with the Devil') 64-bit 2018-12-07 01:12:29 / mkvmerge v15.0.0 ('Duel with the Devil') 64-bit 2018-12-07 01:12:29 / UTC 2018-12-06T12:54:36Z
    FromStats_BitRate                        : 26715
    FromStats_Duration                       : 02:02:42.021000000
    FromStats_FrameCount                     : 2318
    FromStats_StreamSize                     : 24585232

    Text #3
    ID                                       : 6
    Format                                   : PGS
    Muxing mode                              : zlib
    Codec ID                                 : S_HDMV/PGS
    Codec ID/Info                            : Picture based subtitle format used on BDs/HD-DVDs
    Title                                    : Forzados
    Language                                 : Spanish
    Default                                  : Yes
    Forced                                   : Yes
    Statistics Tags Issue                    : mkvmerge v15.0.0 ('Duel with the Devil') 64-bit 2018-12-07 01:12:29 / mkvmerge v15.0.0 ('Duel with the Devil') 64-bit 2018-12-07 01:12:29 / UTC 2018-12-06T12:54:36Z
    FromStats_BitRate                        : 1067
    FromStats_Duration                       : 01:53:32.764000000
    FromStats_FrameCount                     : 80
    FromStats_StreamSize                     : 909409

    Menu
    00:00:00.000                             : :Chapter 1
    00:06:13.582                             : :Chapter 2
    00:08:13.535                             : :Chapter 3
    00:12:14.692                             : :Chapter 4
    00:16:20.438                             : :Chapter 5
    00:18:31.694                             : :Chapter 6
    00:19:31.128                             : :Chapter 7
    00:23:21.734                             : :Chapter 8
    00:25:08.924                             : :Chapter 9
    00:27:02.246                             : :Chapter 10
    00:29:47.077                             : :Chapter 11
    00:36:45.245                             : :Chapter 12
    00:39:13.768                             : :Chapter 13
    00:40:01.774                             : :Chapter 14
    00:43:36.155                             : :Chapter 15
    00:48:57.476                             : :Chapter 16
    00:49:56.035                             : :Chapter 17
    00:52:29.730                             : :Chapter 18
    00:58:28.672                             : :Chapter 19
    01:01:42.949                             : :Chapter 20
    01:02:38.922                             : :Chapter 21
    01:04:46.383                             : :Chapter 22
    01:06:37.410                             : :Chapter 23
    01:08:11.254                             : :Chapter 24
    01:09:53.439                             : :Chapter 25
    01:10:58.755                             : :Chapter 26
    01:16:22.244                             : :Chapter 27
    01:21:55.369                             : :Chapter 28
    01:23:26.210                             : :Chapter 29
    01:25:39.885                             : :Chapter 30
    01:30:52.989                             : :Chapter 31
    01:33:16.633                             : :Chapter 32
    01:34:22.157                             : :Chapter 33
    01:41:08.688                             : :Chapter 34
    01:42:30.853                             : :Chapter 35
    01:44:52.161                             : :Chapter 36
    01:46:35.431                             : :Chapter 37
    01:49:12.254                             : :Chapter 38
    01:53:33.432                             : :Chapter 39
    01:56:07.711                             : :Chapter 40

     

  • Peso: 6.43 GiB

Sinopsis

Es Navidad. El policía del departamento de Los Angeles, teniente John McLane, espera en el aeropuerto de Dulles de Washington a que aterrice el avión en el que viaja su esposa. Mientras tanto, el coronel del ejército Stuart, un militar bien entrando, expulsado del congreso, junto con otros mercenarios profesionales, montan una base de operaciones cerca de dicho aeropuerto, con el objetivo de liberar a un dictador sudamericano derrocado, considerado el mayor traficante del mundo, y que dentro de 58 minutos aterrizará en Dulles en calidad de prisionero político. Stuart anula todos los sistemas que permiten aterrizar a los demás aviones, condenados a permanecer en el aire con el riesgo de agotárseles el combustible. Exige, además, que un Boeing 747 esté a su disposición para huir con el dictador una vez liberado, pero McClane intentará que no prospere…

Ficha técnica

Video trailer de la película

Enlaces de descarga

Rip de Bluray

Descargar Duro de matar 2 (1990) Full 1080p Latino




Aportes de DPeliculasHDmega la pass es:dpeliculashdmega.org Aportes de CinemaniaHD la pass es:cinemaniahdd.com

Películas relacionadas

  • Miss Bala (2019) 1080p Latino

    2019
    Miss Bala (2019) 1080p Latino

    0.0 1h 44m 2019

    La ganadora de un concurso de belleza se ve obligada a trabajar para un jefe del crimen después de ser...

    Director: Catherine Hardwicke

    Género: Acción

    Actores: Roberto Sosa

  • The Final Wish (2018) Full 1080p Subtitulado

    2019
    The Final Wish (2018) Full 1080p Subtitulado

    0.0 1h 35m 2019

    Descargar The Final Wish (2018) Full 1080p Subtitulado. Aaron (Michael Welch) es un abogado con problemas...

    Director: Timothy Woodward Jr.

    Género: FULL 1080p Plateadas

    Actores: Tony Todd

Comentarios 1
  • ocpgaiden - 12 diciembre, 2018

    Gracias por duro de matar 2 y audio latino 5.1 ch, saludos