Duro de matar (1988) Full 1080p Latino

1.614 vistas
1 estrella2 estrellas3 estrellas4 estrellas5 estrellas (2 votos, promedio: 3,00 de 5)
Cargando…

Información de Duro de matar (1988) Full 1080p Latino

Datos de la película

  • Calidad: Full 1080p
  • Audio: Español Latino AC3 5.1 BLURAY - Ingles DTS 5.1 BLURAY
  • Subtitulos: Español Latino PGS - Ingles PGS
  • Resolución: 1920x1080p
  • Formato: MKV
  • Codec: H.264
  • Encoder: Dracarys
  • Mediainfo: Clic para Mostrar Datos Ver
  • Format                                   : Matroska
    Format version                           : Version 4 / Version 2
    File size                                : 9.26 GiB
    Duration                                 : 2 h 12 min
    Overall bit rate                         : 10.0 Mb/s
    Movie name                               : CinemaniaHDD.net
    Encoded date                             : UTC 2018-12-06 22:38:31 / UTC 2018-12-06T07:44:53Z
    Writing application                      : mkvmerge v15.0.0 ('Duel with the Devil') 64-bit
    Writing library                          : libebml v1.3.5 + libmatroska v1.4.5 / Lavf57.7.2

    Video
    ID                                       : 1
    Format                                   : AVC
    Format/Info                              : Advanced Video Codec
    Format profile                           : [email protected]
    Format settings                          : CABAC / 4 Ref Frames
    Format settings, CABAC                   : Yes
    Format settings, RefFrames               : 4 frames
    Codec ID                                 : V_MPEG4/ISO/AVC
    Duration                                 : 2 h 12 min
    Bit rate                                 : 7 870 kb/s
    Width                                    : 1 920 pixels
    Height                                   : 1 080 pixels
    Display aspect ratio                     : 16:9
    Frame rate mode                          : Constant
    Frame rate                               : 23.976 (24000/1001) FPS
    Color space                              : YUV
    Chroma subsampling                       : 4:2:0
    Bit depth                                : 8 bits
    Scan type                                : Progressive
    Bits/(Pixel*Frame)                       : 0.158
    Stream size                              : 7.26 GiB (78%)
    Writing library                          : x264 core 148 r2708 86b7198
    Encoding settings                        : cabac=1 / ref=4 / deblock=1:0:0 / analyse=0x3:0x133 / me=esa / subme=10 / psy=1 / psy_rd=1.00:0.00 / mixed_ref=1 / me_range=24 / chroma_me=1 / trellis=2 / 8x8dct=1 / cqm=0 / deadzone=21,11 / fast_pskip=1 / chroma_qp_offset=-2 / threads=34 / lookahead_threads=5 / sliced_threads=0 / nr=0 / decimate=1 / interlaced=0 / bluray_compat=0 / constrained_intra=0 / bframes=8 / b_pyramid=2 / b_adapt=2 / b_bias=0 / direct=3 / weightb=1 / open_gop=0 / weightp=2 / keyint=240 / keyint_min=24 / scenecut=40 / intra_refresh=0 / rc_lookahead=60 / rc=crf / mbtree=1 / crf=20.0 / qcomp=0.60 / qpmin=0 / qpmax=69 / qpstep=4 / vbv_maxrate=62500 / vbv_bufsize=78125 / crf_max=0.0 / nal_hrd=none / filler=0 / ip_ratio=1.40 / aq=1:1.00
    Language                                 : English
    Default                                  : Yes
    Forced                                   : No
    Color range                              : Limited
    Color primaries                          : BT.709
    Transfer characteristics                 : BT.709
    Matrix coefficients                      : BT.709
    Statistics Tags Issue                    : mkvmerge v15.0.0 ('Duel with the Devil') 64-bit 2018-12-06 22:38:31 / mkvmerge v15.0.0 ('Duel with the Devil') 64-bit 2018-12-06 22:38:31 / UTC 2018-12-06T07:44:53Z
    FromStats_BitRate                        : 8024193
    FromStats_Duration                       : 02:12:07.920000000
    FromStats_FrameCount                     : 190080
    FromStats_StreamSize                     : 7951895100

    Audio #1
    ID                                       : 2
    Format                                   : AC-3
    Format/Info                              : Audio Coding 3
    Format settings, Endianness              : Big
    Codec ID                                 : A_AC3
    Duration                                 : 2 h 12 min
    Bit rate mode                            : Constant
    Bit rate                                 : 448 kb/s
    Channel(s)                               : 6 channels
    Channel positions                        : Front: L C R, Side: L R, LFE
    Sampling rate                            : 48.0 kHz
    Frame rate                               : 31.250 FPS (1536 SPF)
    Bit depth                                : 16 bits
    Compression mode                         : Lossy
    Stream size                              : 423 MiB (4%)
    Language                                 : Spanish
    Service kind                             : Complete Main
    Default                                  : Yes
    Forced                                   : No
    Statistics Tags Issue                    : mkvmerge v15.0.0 ('Duel with the Devil') 64-bit 2018-12-06 22:38:31 / mkvmerge v15.0.0 ('Duel with the Devil') 64-bit 2018-12-06 22:38:31 / UTC 2018-12-06T07:44:53Z
    FromStats_BitRate                        : 448000
    FromStats_Duration                       : 02:12:09.760000000
    FromStats_FrameCount                     : 247805
    FromStats_StreamSize                     : 444066560

    Audio #2
    ID                                       : 3
    Format                                   : DTS
    Format/Info                              : Digital Theater Systems
    Mode                                     : 16
    Format settings, Endianness              : Big
    Codec ID                                 : A_DTS
    Duration                                 : 2 h 12 min
    Bit rate mode                            : Constant
    Bit rate                                 : 1 509 kb/s
    Channel(s)                               : 6 channels
    Channel positions                        : Front: L C R, Side: L R, LFE
    Sampling rate                            : 48.0 kHz
    Frame rate                               : 93.750 FPS (512 SPF)
    Bit depth                                : 24 bits
    Compression mode                         : Lossy
    Delay relative to video                  : 3 ms
    Stream size                              : 1.39 GiB (15%)
    Language                                 : English
    Default                                  : No
    Forced                                   : No
    Statistics Tags Issue                    : mkvmerge v15.0.0 ('Duel with the Devil') 64-bit 2018-12-06 22:38:31 / mkvmerge v15.0.0 ('Duel with the Devil') 64-bit 2018-12-06 22:38:31 / UTC 2018-12-06T07:44:53Z
    FromStats_BitRate                        : 1508999
    FromStats_Duration                       : 02:12:07.915000000
    FromStats_FrameCount                     : 743242
    FromStats_StreamSize                     : 1495402904

    Text #1
    ID                                       : 4
    Format                                   : PGS
    Muxing mode                              : zlib
    Codec ID                                 : S_HDMV/PGS
    Codec ID/Info                            : Picture based subtitle format used on BDs/HD-DVDs
    Language                                 : English
    Default                                  : No
    Forced                                   : No
    Statistics Tags Issue                    : mkvmerge v15.0.0 ('Duel with the Devil') 64-bit 2018-12-06 22:38:31 / mkvmerge v15.0.0 ('Duel with the Devil') 64-bit 2018-12-06 22:38:31 / UTC 2018-12-06T07:44:53Z
    FromStats_BitRate                        : 90776
    FromStats_Duration                       : 02:09:14.496000000
    FromStats_FrameCount                     : 3755
    FromStats_StreamSize                     : 87990964

    Text #2
    ID                                       : 5
    Format                                   : PGS
    Muxing mode                              : zlib
    Codec ID                                 : S_HDMV/PGS
    Codec ID/Info                            : Picture based subtitle format used on BDs/HD-DVDs
    Language                                 : Spanish
    Default                                  : No
    Forced                                   : No
    Statistics Tags Issue                    : mkvmerge v15.0.0 ('Duel with the Devil') 64-bit 2018-12-06 22:38:31 / mkvmerge v15.0.0 ('Duel with the Devil') 64-bit 2018-12-06 22:38:31 / UTC 2018-12-06T07:44:53Z
    FromStats_BitRate                        : 21935
    FromStats_Duration                       : 02:11:08.444000000
    FromStats_FrameCount                     : 2546
    FromStats_StreamSize                     : 21575178

    Text #3
    ID                                       : 6
    Format                                   : PGS
    Muxing mode                              : zlib
    Codec ID                                 : S_HDMV/PGS
    Codec ID/Info                            : Picture based subtitle format used on BDs/HD-DVDs
    Title                                    : Forzados
    Language                                 : Spanish
    Default                                  : Yes
    Forced                                   : Yes
    Statistics Tags Issue                    : mkvmerge v15.0.0 ('Duel with the Devil') 64-bit 2018-12-06 22:38:31 / mkvmerge v15.0.0 ('Duel with the Devil') 64-bit 2018-12-06 22:38:31 / UTC 2018-12-06T07:44:53Z
    FromStats_BitRate                        : 1163
    FromStats_Duration                       : 01:49:48.290000000
    FromStats_FrameCount                     : 60
    FromStats_StreamSize                     : 958433

    Menu
    00:00:00.000                             : :Chapter 1
    00:02:21.391                             : :Chapter 2
    00:03:57.779                             : :Chapter 3
    00:05:11.937                             : :Chapter 4
    00:06:09.828                             : :Chapter 5
    00:07:50.929                             : :Chapter 6
    00:11:58.134                             : :Chapter 7
    00:13:17.922                             : :Chapter 8
    00:14:03.092                             : :Chapter 9
    00:14:18.358                             : :Chapter 10
    00:16:58.309                             : :Chapter 11
    00:21:00.468                             : :Chapter 12
    00:22:41.986                             : :Chapter 13
    00:24:53.242                             : :Chapter 14
    00:26:50.317                             : :Chapter 15
    00:28:50.229                             : :Chapter 16
    00:33:24.461                             : :Chapter 17
    00:34:08.630                             : :Chapter 18
    00:35:26.416                             : :Chapter 19
    00:38:18.671                             : :Chapter 20
    00:42:33.593                             : :Chapter 21
    00:43:24.143                             : :Chapter 22
    00:45:18.424                             : :Chapter 23
    00:47:59.418                             : :Chapter 24
    00:52:39.031                             : :Chapter 25
    00:56:49.156                             : :Chapter 26
    00:57:55.222                             : :Chapter 27
    00:58:38.724                             : :Chapter 28
    01:00:49.479                             : :Chapter 29
    01:01:38.862                             : :Chapter 30
    01:04:18.396                             : :Chapter 31
    01:07:44.102                             : :Chapter 32
    01:12:58.291                             : :Chapter 33
    01:15:19.056                             : :Chapter 34
    01:19:14.750                             : :Chapter 35
    01:26:10.791                             : :Chapter 36
    01:28:49.783                             : :Chapter 37
    01:29:27.237                             : :Chapter 38
    01:30:06.943                             : :Chapter 39
    01:35:43.446                             : :Chapter 40
    01:38:57.056                             : :Chapter 41
    01:41:26.747                             : :Chapter 42
    01:45:24.610                             : :Chapter 43
    01:47:45.000                             : :Chapter 44
    01:48:10.943                             : :Chapter 45
    01:49:49.958                             : :Chapter 46
    01:51:09.413                             : :Chapter 47
    01:54:16.016                             : :Chapter 48
    01:58:22.137                             : :Chapter 49
    01:59:44.260                             : :Chapter 50
    02:02:00.605                             : :Chapter 51
    02:03:48.046                             : :Chapter 52
    02:05:13.131                             : :Chapter 53
    02:06:28.122                             : :Chapter 54
    02:07:19.048                             : :Chapter 55

     

  • Peso: 9.26 GiB

Sinopsis

John MacClane, un duro policía neoyorquino, acude a Los Angeles para pasar unos días de vacaciones con sus hijos y su esposa Holly. En el transcurso de la fiesta navideña que la empresa de Holly da en el moderno edificio Nakatoni, éste es asaltado por un supuesto grupo terrorista liderado por un megalomano llamado Hans Gruber.

Ficha técnica

Video trailer de la película

Enlaces de descarga

Rip de Bluray

Descargar Duro de matar (1988) Full 1080p Latino




Aportes de DPeliculasHDmega la pass es:dpeliculashdmega.org Aportes de CinemaniaHD la pass es:cinemaniahdd.com

Películas relacionadas

  • The Final Wish (2018) Full 1080p Subtitulado

    2019
    The Final Wish (2018) Full 1080p Subtitulado

    0.0 1h 35m 2019

    Descargar The Final Wish (2018) Full 1080p Subtitulado. Aaron (Michael Welch) es un abogado con problemas...

    Director: Timothy Woodward Jr.

    Género: FULL 1080p Plateadas

    Actores: Tony Todd

  • La nave del terror (1997) Full 1080p Latino

    1997
    La nave del terror (1997) Full 1080p Latino

    0.0 1h 36m 1997

    En el año 2047 una nave de rescate, la "Lewis & Clark", es enviada a investigar la misteriosa reaparición...

    Director: Paul W.S. Anderson

    Género: Ciencia ficción

    Actores: Teresa May

  • Man On A Ledge (2012) Full (Open Matte) 1080P Latino

    2012
    Man On A Ledge (2012) Full (Open Matte) 1080P Latino

    0.0 1h 42m 2012

    Nick Cassidy (Sam Worthington), un antiguo agente de policía, se escapa de la cárcel y se dirige al...

    Director: Melissa Kalbfus

    Género: Acción

    Actores: William Sadler

Comentarios 1
  • ocpgaiden - 12 diciembre, 2018

    Gracias por la colección de duro de matar, saludos