Duro De Cuidar 2 (2021) PLACEBO Full HD 1080p Latino

67 vistas
1 estrella2 estrellas3 estrellas4 estrellas5 estrellas (1 votos, promedio: 5,00 de 5)
Cargando...

Información de Duro De Cuidar 2 (2021) PLACEBO Full HD 1080p Latino

Datos de la película

  • Calidad: Full 1080p
  • Audio: Se especifica abajo de la Sinopsis
  • Subtitulos: Español Latino SRT- FORZADOS SRT
  • Resolución: 1920x1080p
  • Formato: MKV
  • Codec: H.264
  • Encoder: Melkor
  • Mediainfo: Clic para Mostrar Datos Ver
  • Duro De Cuidar 2 (2021) PLACEBO 1080p Latino.mkv
    Format                      : Matroska
    Format version              : Version 4
    File size                   : 6.83 GiB
    Duration                    : 1 h 39 min
    Overall bit rate mode       : Variable
    Overall bit rate            : 9 812 kb/s
    Movie name                  : Hitman's Wife's Bodyguard (2021) CinemaniaHDD.Net
    Encoded date                : UTC 2021-08-07 22:28:13
    Writing application         : mkvmerge v60.0.0 ('Are We Copies?') 64-bit
    Writing library             : libebml v1.4.2 + libmatroska v1.6.4
    Attachments                 : CINEMANIAHD.png

    Video
    ID                          : 1
    Format                      : AVC
    Format/Info                 : Advanced Video Codec
    Format profile              : High@L4.1
    Format settings             : CABAC / 4 Ref Frames
    Format settings, CABAC      : Yes
    Format settings, Reference  : 4 frames
    Codec ID                    : V_MPEG4/ISO/AVC
    Duration                    : 1 h 39 min
    Bit rate                    : 5 532 kb/s
    Width                       : 1 920 pixels
    Height                      : 1 080 pixels
    Display aspect ratio        : 16:9
    Frame rate mode             : Constant
    Frame rate                  : 23.976 (24000/1001) FPS
    Color space                 : YUV
    Chroma subsampling          : 4:2:0
    Bit depth                   : 8 bits
    Scan type                   : Progressive
    Bits/(Pixel*Frame)          : 0.111
    Stream size                 : 3.85 GiB (56%)
    Title                       : Full HD1080p [CinemaniaHDD]
    Writing library             : x264 core 163 r3059 b684ebe0
    Encoding settings           : cabac=1 / ref=4 / deblock=1:0:0 / analyse=0x3:0x133 / me=tesa / subme=11 / psy=1 / psy_rd=1.00:0.00 / mixed_ref=1 / me_range=24 / chroma_me=1 / trellis=2 / 8x8dct=1 / cqm=0 / deadzone=21,11 / fast_pskip=0 / chroma_qp_offset=-2 / threads=24 / lookahead_threads=6 / sliced_threads=0 / nr=0 / decimate=1 / interlaced=0 / bluray_compat=0 / constrained_intra=0 / bframes=16 / b_pyramid=2 / b_adapt=2 / b_bias=0 / direct=3 / weightb=1 / open_gop=0 / weightp=2 / keyint=240 / keyint_min=24 / scenecut=40 / intra_refresh=0 / rc_lookahead=60 / rc=crf / mbtree=1 / crf=19.0 / qcomp=0.60 / qpmin=0 / qpmax=69 / qpstep=4 / vbv_maxrate=62500 / vbv_bufsize=78125 / crf_max=0.0 / nal_hrd=none / filler=0 / ip_ratio=1.40 / aq=1:1.00
    Default                     : Yes
    Forced                      : Yes
    Color range                 : Limited
    Color primaries             : BT.709
    Transfer characteristics    : BT.709
    Matrix coefficients         : BT.709

    Audio #1
    ID                          : 2
    Format                      : AC-3
    Format/Info                 : Audio Coding 3
    Commercial name             : Dolby Digital
    Codec ID                    : A_AC3
    Duration                    : 1 h 39 min
    Bit rate mode               : Constant
    Bit rate                    : 640 kb/s
    Channel(s)                  : 6 channels
    Channel layout              : L R C LFE Ls Rs
    Sampling rate               : 48.0 kHz
    Frame rate                  : 31.250 FPS (1536 SPF)
    Compression mode            : Lossy
    Stream size                 : 456 MiB (7%)
    Title                       : Español Latino [CinemaniaHDD]
    Language                    : Spanish
    Service kind                : Complete Main
    Default                     : Yes
    Forced                      : Yes

    Audio #2
    ID                          : 3
    Format                      : MLP FBA 16-ch
    Format/Info                 : Meridian Lossless Packing FBA with 16-channel presentation
    Commercial name             : Dolby TrueHD with Dolby Atmos
    Codec ID                    : A_TRUEHD
    Duration                    : 1 h 39 min
    Bit rate mode               : Variable
    Bit rate                    : 2 930 kb/s
    Maximum bit rate            : 4 608 kb/s
    Channel(s)                  : 8 channels
    Channel layout              : L R C LFE Ls Rs Lb Rb
    Sampling rate               : 48.0 kHz
    Frame rate                  : 1 200.000 FPS (40 SPF)
    Compression mode            : Lossless
    Stream size                 : 2.04 GiB (30%)
    Title                       : Ingles THD[CinemaniaHDD]
    Language                    : English
    Default                     : No
    Forced                      : No
    Number of dynamic objects   : 15
    Bed channel count           : 1 channel
    Bed channel configuration   : LFE

    Audio #3
    ID                          : 4
    Format                      : AC-3
    Format/Info                 : Audio Coding 3
    Commercial name             : Dolby Digital
    Codec ID                    : A_AC3
    Duration                    : 1 h 39 min
    Bit rate mode               : Constant
    Bit rate                    : 640 kb/s
    Channel(s)                  : 6 channels
    Channel layout              : L R C LFE Ls Rs
    Sampling rate               : 48.0 kHz
    Frame rate                  : 31.250 FPS (1536 SPF)
    Compression mode            : Lossy
    Stream size                 : 456 MiB (7%)
    Title                       : Ingles AC3 [CinemaniaHDD]
    Language                    : English
    Service kind                : Complete Main
    Default                     : No
    Forced                      : No

    Text #1
    ID                          : 5
    Format                      : UTF-8
    Codec ID                    : S_TEXT/UTF8
    Codec ID/Info               : UTF-8 Plain Text
    Duration                    : 1 h 33 min
    Bit rate                    : 86 b/s
    Count of elements           : 1574
    Stream size                 : 59.2 KiB (0%)
    Title                       : Forzados-SRT [CinemaniaHDD]
    Language                    : Spanish
    Default                     : Yes
    Forced                      : Yes

    Text #2
    ID                          : 6
    Format                      : UTF-8
    Codec ID                    : S_TEXT/UTF8
    Codec ID/Info               : UTF-8 Plain Text
    Duration                    : 1 h 38 min
    Bit rate                    : 0 b/s
    Count of elements           : 26
    Stream size                 : 566 Bytes (0%)
    Title                       : Español-SRT [CinemaniaHDD]
    Language                    : Spanish
    Default                     : No
    Forced                      : No

    Text #3
    ID                          : 7
    Format                      : UTF-8
    Codec ID                    : S_TEXT/UTF8
    Codec ID/Info               : UTF-8 Plain Text
    Duration                    : 1 h 32 min
    Bit rate                    : 79 b/s
    Count of elements           : 1460
    Stream size                 : 53.5 KiB (0%)
    Title                       : Ingles-SRT [CinemaniaHDD]
    Language                    : English
    Default                     : No
    Forced                      : No

    Menu
    00:00:00.000                : :Chapter 01
    00:05:30.664                : :Chapter 02
    00:12:17.236                : :Chapter 03
    00:20:47.788                : :Chapter 04
    00:26:59.910                : :Chapter 05
    00:30:44.217                : :Chapter 06
    00:37:09.519                : :Chapter 07
    00:46:16.899                : :Chapter 08
    00:49:42.855                : :Chapter 09
    00:55:01.381                : :Chapter 10
    00:59:19.473                : :Chapter 11
    01:04:09.721                : :Chapter 12
    01:13:17.560                : :Chapter 13
    01:17:44.326                : :Chapter 14
    01:22:40.914                : :Chapter 15
    01:30:11.156                : :Chapter 16

  • Peso: 6.83 GiB

Sinopsis

Descargar Duro De Cuidar 2 (2021) PLACEBO Full HD 1080p Latino.La pareja más letal del mundo, el guardaespaldas Michael Bryce y el asesino a sueldo Darius Kincaid, están de vuelta en otra misión que amenaza su vida. Aún sin licencia y bajo escrutinio, Bryce se ve obligado a actuar por la esposa aún más volátil de Darius, la infame estafadora internacional Sonia Kincaid. Mientras Bryce es conducido al límite por sus dos protegidos más peligrosos, el trío se mete en la cabeza en una trama global y pronto descubre que son todo lo que se interpone entre Europa y un loco vengativo y poderoso.

Español Latino AC3 5.1 BD – TrueHD 7.1 & AC3 5.1 BD

Ficha técnica

Video trailer de la película

Enlaces de descarga

Rip de Bluray

Descargar Duro De Cuidar 2 (2021) PLACEBO Full HD 1080p Latino




Aportes de DPeliculasHDmega la pass es:dpeliculashdmega.org Aportes de CinemaniaHD la pass es:cinemaniahdd.com

Películas relacionadas

Duro De Cuidar 2 (2021) PLACEBO Full HD 1080p Latino pelicula full hd, Duro De Cuidar 2 (2021) PLACEBO Full HD 1080p Latino mega latino, Duro De Cuidar 2 (2021) PLACEBO Full HD 1080p Latino 4k latino, Duro De Cuidar 2 (2021) PLACEBO Full HD 1080p Latino pelicula completa, Duro De Cuidar 2 (2021) PLACEBO Full HD 1080p Latino descargar gratis, descargar Duro De Cuidar 2 (2021) PLACEBO Full HD 1080p Latino pelicula latino, Duro De Cuidar 2 (2021) PLACEBO Full HD 1080p Latino 1 link mega, Duro De Cuidar 2 (2021) PLACEBO Full HD 1080p Latino 1 link google drive, Duro De Cuidar 2 (2021) PLACEBO Full HD 1080p Latino hd 1080p latino.
Comentarios 3
  • The Principal - 07 agosto, 2021

    hola…como se va a descargar si los 2 enlaces que hay estan agotado??? puedes areglarlo….gracias

    • Dracarys - 07 agosto, 2021

      Acabo de revisar y ambos están activos o usa otro servidor

  • ocpgaiden - 07 agosto, 2021

    Gracias por duro de cuidar 2, saludos