×

¿Problemas para descargar con Mozilla, EDGE? Deshabilita la opción "Abrir vinculos en una pestaña nueva" tal como lo muestra ésta imagen.

Durante la tormenta (2018) Full HD 1080p Castellano

1.676 vistas

Información de Durante la tormenta (2018) Full HD 1080p Castellano

durante la tormenta 54195 poster

Datos de la película

  • Calidad: Full 1080p
  • Audio: Español AC3 5.1 BLURAY
  • Subtitulos: No
  • Resolución: 1920x1080p
  • Formato: MKV
  • Codec: H.264
  • Encoder: CinefiloCool
  • Mediainfo: Clic para Mostrar Datos Ver
  • Durante La Tormenta (2018) Full HD 1080p Castellano[PLACEBO].mkv
    Format                      : Matroska
    Format version              : Version 4
    File size                   : 2.25 GiB
    Duration                    : 2 h 8 min
    Overall bit rate            : 2 493 kb/s
    Movie name                  : CinemaniaHDD.Net
    Encoded date                : UTC 2019-06-17 23:27:51
    Writing application         : mkvmerge v30.1.0 ('Forever And More') 64-bit
    Writing library             : libebml v1.3.6 + libmatroska v1.4.9
    Attachments                 : CINEMANIAHD.png

    Video
    ID                          : 1
    Format                      : AVC
    Format/Info                 : Advanced Video Codec
    Format profile              : High@L4.1
    Format settings             : CABAC / 4 Ref Frames
    Format settings, CABAC      : Yes
    Format settings, ReFrames   : 4 frames
    Codec ID                    : V_MPEG4/ISO/AVC
    Duration                    : 2 h 8 min
    Bit rate                    : 1 851 kb/s
    Width                       : 1 920 pixels
    Height                      : 1 080 pixels
    Display aspect ratio        : 16:9
    Frame rate mode             : Constant
    Frame rate                  : 23.976 (24000/1001) FPS
    Color space                 : YUV
    Chroma subsampling          : 4:2:0
    Bit depth                   : 8 bits
    Scan type                   : Progressive
    Bits/(Pixel*Frame)          : 0.037
    Stream size                 : 1.67 GiB (74%)
    Title                       : Full HD1080p [Bluray]
    Writing library             : x264 core 157 r2935 545de2f
    Encoding settings           : cabac=1 / ref=4 / deblock=1:0:0 / analyse=0x3:0x133 / me=tesa / subme=11 / psy=1 / psy_rd=1.00:0.00 / mixed_ref=1 / me_range=24 / chroma_me=1 / trellis=2 / 8x8dct=1 / cqm=0 / deadzone=21,11 / fast_pskip=0 / chroma_qp_offset=-2 / threads=34 / lookahead_threads=8 / sliced_threads=0 / nr=0 / decimate=1 / interlaced=0 / bluray_compat=0 / constrained_intra=0 / bframes=16 / b_pyramid=2 / b_adapt=2 / b_bias=0 / direct=3 / weightb=1 / open_gop=0 / weightp=2 / keyint=240 / keyint_min=24 / scenecut=40 / intra_refresh=0 / rc_lookahead=60 / rc=crf / mbtree=1 / crf=20.0 / qcomp=0.60 / qpmin=0 / qpmax=69 / qpstep=4 / vbv_maxrate=62500 / vbv_bufsize=78125 / crf_max=0.0 / nal_hrd=none / filler=0 / ip_ratio=1.40 / aq=1:1.00
    Default                     : Yes
    Forced                      : No
    Color range                 : Limited
    Color primaries             : BT.709
    Transfer characteristics    : BT.709
    Matrix coefficients         : BT.709

    Audio
    ID                          : 2
    Format                      : AC-3
    Format/Info                 : Audio Coding 3
    Commercial name             : Dolby Digital
    Codec ID                    : A_AC3
    Duration                    : 2 h 8 min
    Bit rate mode               : Constant
    Bit rate                    : 640 kb/s
    Channel(s)                  : 6 channels
    Channel layout              : L R C LFE Ls Rs
    Sampling rate               : 48.0 kHz
    Frame rate                  : 31.250 FPS (1536 SPF)
    Bit depth                   : 16 bits
    Compression mode            : Lossy
    Stream size                 : 590 MiB (26%)
    Title                       : AC3_5.1_Bluray_Cast
    Language                    : Spanish
    Service kind                : Complete Main
    Default                     : Yes
    Forced                      : Yes

    Menu
    00:00:00.000                : :00:00:00.000
    00:05:56.565                : :00:05:56.481
    00:16:19.103                : :00:16:19.020
    00:25:33.490                : :00:25:33.407
    00:30:15.355                : :00:30:15.355
    00:35:54.194                : :00:35:54.194
    00:42:15.575                : :00:42:15.575
    00:54:26.263                : :00:54:26.263
    01:03:14.708                : :01:03:14.708
    01:10:06.869                : :01:10:06.869
    01:18:16.317                : :01:18:16.233
    01:32:11.985                : :01:32:11.901

  • Peso: 2.25 GiB

Sinopsis

Descargar Durante la tormenta (2018) Full HD 1080p Castellano, Mega, Google Drive. Narra cómo una interferencia entre dos tiempos provoca un inquietante efecto mariposa. A consecuencia de esa incidencia, Vera, una madre felizmente casada, tiene la posibilidad de salvar la vida de un chico que vivió en su casa 25 años antes. Pero las consecuencias de su buena acción provocan una reacción en cadena que hace que despierte en una nueva realidad donde su hija nunca ha nacido y su marido ni siquiera la conoce. En una carrera contrarreloj, tendrá que encontrar qué pieza lo cambió todo cuando salvó la vida al chico, a la vez que irá descubriendo, desde su nuevo rol, que su antigua vida quizá no era más que un espejismo

Ficha técnica

Video trailer de la película

Enlaces de descarga

Rip de Bluray

Descargar Durante la tormenta (2018) Full HD 1080p Castellano




Aportes de DPeliculasHDmega la pass es:dpeliculashdmega.org Aportes de CinemaniaHD la pass es:cinemaniahdd.com

Películas relacionadas

descargar Durante la tormenta (2018) Full HD 1080p Castellano Full 1080p 1080p gratis, Durante la tormenta (2018) Full HD 1080p Castellano Full 1080p mega 1 link, Durante la tormenta (2018) Full HD 1080p Castellano Full 1080p pelicula completa, descargar Durante la tormenta (2018) Full HD 1080p Castellano Full 1080p gratis en mega.

Durante la tormenta (2018) Full HD 1080p Castellano pelicula full hd, Durante la tormenta (2018) Full HD 1080p Castellano mega latino, Durante la tormenta (2018) Full HD 1080p Castellano 4k latino, Durante la tormenta (2018) Full HD 1080p Castellano pelicula completa, Durante la tormenta (2018) Full HD 1080p Castellano descargar gratis, descargar Durante la tormenta (2018) Full HD 1080p Castellano pelicula latino, Durante la tormenta (2018) Full HD 1080p Castellano 1 link mega, Durante la tormenta (2018) Full HD 1080p Castellano 1 link google drive, Durante la tormenta (2018) Full HD 1080p Castellano hd 1080p latino.
Comentarios 0