×

¿Problemas para descargar con Mozilla, EDGE? Deshabilita la opción "Abrir vinculos en una pestaña nueva" tal como lo muestra ésta imagen.

Dune: Parte dos (2024) WEB-DL 4K UHD HDR Latino

118 vistas

Información de Dune: Parte dos (2024) WEB-DL 4K UHD HDR Latino

Datos de la película

  • Calidad: WEBDL
  • Audio: Español Latino AC3 5.1 WEB-DL - Ingles AC3 5.1 WEB-DL
  • Subtitulos: Español Latino SRT- FORZADOS SRT
  • Resolución: 3840x1606p
  • Formato: MKV
  • Codec: HEVC
  • Encoder: Melkor
  • Mediainfo: Clic para Mostrar Datos Ver
  • Dune Part Two (2024) WEB UHD HDR Latino.mkv
    Format                      : Matroska
    Format version              : Version 4
    File size                   : 29.7 GiB
    Duration                    : 2 h 45 min
    Overall bit rate            : 25.6 Mb/s
    Movie name                  : Dune Part Two (2024) CinemaniaHDD.Net
    Encoded date                : UTC 2024-04-15 03:21:42
    Writing application         : mkvmerge v56.1.0 ('My Friend') 64-bit
    Writing library             : libebml v1.4.2 + libmatroska v1.6.4
    Attachments                 : CINEMANIAHD.png
    Site                        : CinemaniaHDD.Net
    Uploader                    : Melkor

    Video
    ID                          : 1
    Format                      : HEVC
    Format/Info                 : High Efficiency Video Coding
    Format profile              : Main 10@L5@High
    HDR format                  : SMPTE ST 2094 App 4, Version 1, HDR10+ Profile B compatible
    Codec ID                    : V_MPEGH/ISO/HEVC
    Duration                    : 2 h 45 min
    Bit rate                    : 24.5 Mb/s
    Width                       : 3 840 pixels
    Height                      : 1 606 pixels
    Display aspect ratio        : 2.40:1
    Frame rate mode             : Constant
    Frame rate                  : 23.976 (24000/1001) FPS
    Color space                 : YUV
    Chroma subsampling          : 4:2:0 (Type 2)
    Bit depth                   : 10 bits
    Bits/(Pixel*Frame)          : 0.165
    Stream size                 : 28.3 GiB (95%)
    Title                       : Web 2160p HDR [CinemaniaHDD]
    Language                    : English
    Default                     : Yes
    Forced                      : No
    Color range                 : Limited
    Color primaries             : BT.2020
    Transfer characteristics    : PQ
    Matrix coefficients         : BT.2020 non-constant
    Mastering display color pri : BT.2020
    Mastering display luminance : min: 0.0050 cd/m2, max: 1000 cd/m2
    Maximum Content Light Level : 880 cd/m2
    Maximum Frame-Average Light : 475 cd/m2

    Audio #1
    ID                          : 2
    Format                      : AC-3
    Format/Info                 : Audio Coding 3
    Commercial name             : Dolby Digital
    Codec ID                    : A_AC3
    Duration                    : 2 h 45 min
    Bit rate mode               : Constant
    Bit rate                    : 384 kb/s
    Channel(s)                  : 6 channels
    Channel layout              : L R C LFE Ls Rs
    Sampling rate               : 48.0 kHz
    Frame rate                  : 31.250 FPS (1536 SPF)
    Compression mode            : Lossy
    Stream size                 : 455 MiB (1%)
    Title                       : Español Latino [CinemaniaHDD]
    Language                    : Spanish
    Service kind                : Complete Main
    Default                     : Yes
    Forced                      : Yes

    Audio #2
    ID                          : 3
    Format                      : E-AC-3 JOC
    Format/Info                 : Enhanced AC-3 with Joint Object Coding
    Commercial name             : Dolby Digital Plus with Dolby Atmos
    Codec ID                    : A_EAC3
    Duration                    : 2 h 45 min
    Bit rate mode               : Constant
    Bit rate                    : 768 kb/s
    Channel(s)                  : 6 channels
    Channel layout              : L R C LFE Ls Rs
    Sampling rate               : 48.0 kHz
    Frame rate                  : 31.250 FPS (1536 SPF)
    Compression mode            : Lossy
    Stream size                 : 911 MiB (3%)
    Title                       : Ingles [CinemaniaHDD]
    Language                    : English
    Service kind                : Complete Main
    Default                     : No
    Forced                      : No
    Complexity index            : 16
    Number of dynamic objects   : 15
    Bed channel count           : 1 channel
    Bed channel configuration   : LFE

    Text #1
    ID                          : 4
    Format                      : UTF-8
    Codec ID                    : S_TEXT/UTF8
    Codec ID/Info               : UTF-8 Plain Text
    Duration                    : 2 h 39 min
    Bit rate                    : 4 b/s
    Count of elements           : 214
    Stream size                 : 5.54 KiB (0%)
    Title                       : Forzados-SRT [CinemaniaHDD]
    Language                    : Spanish
    Default                     : Yes
    Forced                      : Yes

    Text #2
    ID                          : 5
    Format                      : UTF-8
    Codec ID                    : S_TEXT/UTF8
    Codec ID/Info               : UTF-8 Plain Text
    Duration                    : 2 h 45 min
    Bit rate                    : 29 b/s
    Count of elements           : 1327
    Stream size                 : 35.6 KiB (0%)
    Title                       : Español-SRT [CinemaniaHDD]
    Language                    : Spanish
    Default                     : No
    Forced                      : No

    Text #3
    ID                          : 6
    Format                      : UTF-8
    Codec ID                    : S_TEXT/UTF8
    Codec ID/Info               : UTF-8 Plain Text
    Duration                    : 2 h 37 min
    Bit rate                    : 42 b/s
    Count of elements           : 1729
    Stream size                 : 48.5 KiB (0%)
    Title                       : Ingles-SRT [CinemaniaHDD]
    Language                    : English
    Default                     : No
    Forced                      : No

    Menu
    00:00:00.000                : Chapter 01
    00:09:15.221                : Chapter 02
    00:21:29.914                : Chapter 03
    00:29:31.021                : Chapter 04
    00:40:08.908                : Chapter 05
    00:50:40.915                : Chapter 06
    01:00:34.134                : Chapter 07
    01:09:54.527                : Chapter 08
    01:19:40.488                : Chapter 09
    01:30:39.939                : Chapter 10
    01:39:06.071                : Chapter 11
    01:49:35.867                : Chapter 12
    01:59:40.430                : Chapter 13
    02:10:24.616                : Chapter 14
    02:18:50.288                : Chapter 15
    02:24:19.242                : Chapter 16
    02:37:45.799                : Chapter 17

  • Peso: 29.7 GiB

Sinopsis

Descargar Dune: Parte dos (2024) WEB-DL 4K UHD HDR Latino. Sigue el viaje mítico de Paul Atreides mientras se une a Chani y los Fremen en una guerra de venganza contra los conspiradores que destruyeron a su familia. Al enfrentarse a una elección entre el amor de su vida y el destino del universo conocido, Paul se esfuerza por evitar un futuro terrible que solo él puede prever.

Ficha técnica

Video trailer de la película

Enlaces de descarga

Rip de Bluray

Descargar Dune: Parte dos (2024) WEB-DL 4K UHD HDR Latino




Aportes de DPeliculasHDmega la pass es:dpeliculashdmega.org Aportes de CinemaniaHD la pass es:cinemaniahdd.com Aportes recientes:cinemaniahdd.net
Guardado en : 4K HDR , 4K UHD , Aventura , Ciencia ficción

Películas relacionadas

  • The Shift (2023) AMZN WEB-DL 1080p Latino

    The Shift (2023) AMZN WEB-DL 1080p Latino

    2023
    The Shift (2023) AMZN WEB-DL 1080p Latino

    1h 53m 2023

    Descargar The Shift (2023) AMZN WEB-DL 1080p Latino. Kevin viaja a través de los mundos para reunirse...

    Director: Brock Heasley

    Género: Ciencia ficción

    Actores: Teck

  • Godzilla: Minus One (2023) 1080p SUB-CMHDD

    Godzilla: Minus One (2023) 1080p SUB-CMHDD

    2023
    Godzilla: Minus One (2023) 1080p SUB-CMHDD

    2h 5m 2023

    Descargar Godzilla: Minus One (2023) 1080p SUB-CMHDD. En el Japón de la posguerra surge un nuevo terror....

    Director: 山崎貴

    Género: Acción

    Actores: 鶴田翔

  • Atlas (2024) NF WEB-DL 1080p Latino

    Atlas (2024) NF WEB-DL 1080p Latino

    2024
    Atlas (2024) NF WEB-DL 1080p Latino

    2h 0m 2024

    Descargar Atlas (2024) NF WEB-DL 1080p Latino. La película sigue a Atlas, una mujer que lucha por la...

    Director: Brad Peyton

    Género: Acción

    Actores: Zoe Boyle

descargar Dune: Parte dos (2024) WEB-DL 4K UHD HDR Latino WEBDL 1080p gratis, Dune: Parte dos (2024) WEB-DL 4K UHD HDR Latino WEBDL mega 1 link, Dune: Parte dos (2024) WEB-DL 4K UHD HDR Latino WEBDL pelicula completa, descargar Dune: Parte dos (2024) WEB-DL 4K UHD HDR Latino WEBDL gratis en mega.

Dune: Parte dos (2024) WEB-DL 4K UHD HDR Latino pelicula full hd, Dune: Parte dos (2024) WEB-DL 4K UHD HDR Latino mega latino, Dune: Parte dos (2024) WEB-DL 4K UHD HDR Latino 4k latino, Dune: Parte dos (2024) WEB-DL 4K UHD HDR Latino pelicula completa, Dune: Parte dos (2024) WEB-DL 4K UHD HDR Latino descargar gratis, descargar Dune: Parte dos (2024) WEB-DL 4K UHD HDR Latino pelicula latino, Dune: Parte dos (2024) WEB-DL 4K UHD HDR Latino 1 link mega, Dune: Parte dos (2024) WEB-DL 4K UHD HDR Latino 1 link google drive, Dune: Parte dos (2024) WEB-DL 4K UHD HDR Latino hd 1080p latino.
Comentarios 0