×

¿Problemas para descargar con Mozilla, EDGE? Deshabilita la opción "Abrir vinculos en una pestaña nueva" tal como lo muestra ésta imagen.

Dune (2021) REMUX 1080p Latino – CMHDD

57 vistas

Información de Dune (2021) REMUX 1080p Latino – CMHDD

Datos de la película

  • Calidad:
  • Audio: Español Latino AC3 5.1 BLURAY - Ingles AC3 5.1 BLURAY
  • Subtitulos: Español Latino SRT- FORZADOS SRT
  • Resolución: 19201080p
  • Formato: MKV
  • Codec: H.264
  • Encoder: Dracarys
  • Mediainfo: Clic para Mostrar Datos Ver
  • Format                      : Matroska
    Format version              : Version 4
    File size                   : 29.4 GiB
    Duration                    : 2 h 35 min
    Overall bit rate mode       : Variable
    Overall bit rate            : 27.0 Mb/s
    Movie name                  : Dune (2021) REMUX 1080p Latino - CMHDD
    Encoded date                : UTC 2024-03-09 03:49:20
    Writing application         : mkvmerge v47.0.0 ('Black Flag') 64-bit
    Writing library             : libebml v1.3.10 + libmatroska v1.5.2

    Video
    ID                          : 1
    Format                      : AVC
    Format/Info                 : Advanced Video Codec
    Format profile              : High@L4.1
    Format settings             : CABAC / 4 Ref Frames
    Format settings, CABAC      : Yes
    Format settings, Reference  : 4 frames
    Codec ID                    : V_MPEG4/ISO/AVC
    Duration                    : 2 h 35 min
    Bit rate mode               : Variable
    Bit rate                    : 22.8 Mb/s
    Maximum bit rate            : 31.0 Mb/s
    Width                       : 1 920 pixels
    Height                      : 1 080 pixels
    Display aspect ratio        : 16:9
    Frame rate mode             : Constant
    Frame rate                  : 23.976 (24000/1001) FPS
    Color space                 : YUV
    Chroma subsampling          : 4:2:0
    Bit depth                   : 8 bits
    Scan type                   : Progressive
    Bits/(Pixel*Frame)          : 0.459
    Stream size                 : 24.8 GiB (84%)
    Default                     : Yes
    Forced                      : No

    Audio #1
    ID                          : 2
    ID in the original source m : 4363 (0x110B)
    Format                      : AC-3
    Format/Info                 : Audio Coding 3
    Commercial name             : Dolby Digital
    Codec ID                    : A_AC3
    Duration                    : 2 h 35 min
    Bit rate mode               : Constant
    Bit rate                    : 448 kb/s
    Channel(s)                  : 6 channels
    Channel layout              : L R C LFE Ls Rs
    Sampling rate               : 48.0 kHz
    Frame rate                  : 31.250 FPS (1536 SPF)
    Compression mode            : Lossy
    Stream size                 : 498 MiB (2%)
    Language                    : Spanish
    Service kind                : Complete Main
    Default                     : Yes
    Forced                      : Yes
    Original source medium      : Blu-ray

    Audio #2
    ID                          : 3
    ID in the original source m : 4352 (0x1100)
    Format                      : AC-3
    Format/Info                 : Audio Coding 3
    Commercial name             : Dolby Digital
    Format settings             : Dolby Surround EX
    Codec ID                    : A_AC3
    Duration                    : 2 h 35 min
    Bit rate mode               : Constant
    Bit rate                    : 448 kb/s
    Channel(s)                  : 6 channels
    Channel layout              : L R C LFE Ls Rs
    Sampling rate               : 48.0 kHz
    Frame rate                  : 31.250 FPS (1536 SPF)
    Compression mode            : Lossy
    Stream size                 : 498 MiB (2%)
    Language                    : English
    Service kind                : Complete Main
    Default                     : No
    Forced                      : No
    Original source medium      : Blu-ray

    Audio #3
    ID                          : 4
    Format                      : MLP FBA 16-ch
    Format/Info                 : Meridian Lossless Packing FBA with 16-channel presentation
    Commercial name             : Dolby TrueHD with Dolby Atmos
    Codec ID                    : A_TRUEHD
    Duration                    : 2 h 35 min
    Bit rate mode               : Variable
    Bit rate                    : 3 243 kb/s
    Maximum bit rate            : 5 472 kb/s
    Channel(s)                  : 8 channels
    Channel layout              : L R C LFE Ls Rs Lb Rb
    Sampling rate               : 48.0 kHz
    Frame rate                  : 1 200.000 FPS (40 SPF)
    Compression mode            : Lossless
    Stream size                 : 3.52 GiB (12%)
    Language                    : English
    Default                     : No
    Forced                      : No
    Number of dynamic objects   : 11
    Bed channel count           : 1 channel
    Bed channel configuration   : LFE

    Text #1
    ID                          : 5
    Format                      : UTF-8
    Codec ID                    : S_TEXT/UTF8
    Codec ID/Info               : UTF-8 Plain Text
    Duration                    : 2 h 27 min
    Bit rate                    : 1 b/s
    Frame rate                  : 0.006 FPS
    Count of elements           : 51
    Stream size                 : 1.51 KiB (0%)
    Title                       : Forzados SRT
    Language                    : Spanish
    Default                     : Yes
    Forced                      : Yes

    Text #2
    ID                          : 6
    Format                      : UTF-8
    Codec ID                    : S_TEXT/UTF8
    Codec ID/Info               : UTF-8 Plain Text
    Duration                    : 2 h 26 min
    Bit rate                    : 35 b/s
    Frame rate                  : 0.145 FPS
    Count of elements           : 1277
    Stream size                 : 38.2 KiB (0%)
    Title                       : Completos SRT
    Language                    : Spanish
    Default                     : No
    Forced                      : No

    Text #3
    ID                          : 7
    ID in the original source m : 4786 (0x12B2)
    Format                      : PGS
    Muxing mode                 : zlib
    Codec ID                    : S_HDMV/PGS
    Codec ID/Info               : Picture based subtitle format used on BDs/HD-DVDs
    Duration                    : 2 h 27 min
    Bit rate                    : 866 b/s
    Frame rate                  : 0.012 FPS
    Count of elements           : 102
    Stream size                 : 936 KiB (0%)
    Title                       : Forzados PGS
    Language                    : Spanish
    Default                     : No
    Forced                      : No
    Original source medium      : Blu-ray

    Text #4
    ID                          : 8
    ID in the original source m : 4776 (0x12A8)
    Format                      : PGS
    Muxing mode                 : zlib
    Codec ID                    : S_HDMV/PGS
    Codec ID/Info               : Picture based subtitle format used on BDs/HD-DVDs
    Duration                    : 2 h 35 min
    Bit rate                    : 19.8 kb/s
    Frame rate                  : 0.270 FPS
    Count of elements           : 2512
    Stream size                 : 22.0 MiB (0%)
    Title                       : Completos PGS
    Language                    : Spanish
    Default                     : No
    Forced                      : No
    Original source medium      : Blu-ray

    Menu
    00:00:00.000                : en:Chapter 01
    00:03:15.987                : en:Chapter 02
    00:12:54.774                : en:Chapter 03
    00:22:00.569                : en:Chapter 04
    00:29:16.755                : en:Chapter 05
    00:39:10.931                : en:Chapter 06
    00:47:19.795                : en:Chapter 07
    00:56:53.493                : en:Chapter 08
    01:06:50.381                : en:Chapter 09
    01:16:44.891                : en:Chapter 10
    01:26:00.655                : en:Chapter 11
    01:36:00.087                : en:Chapter 12
    01:45:09.469                : en:Chapter 13
    01:53:50.323                : en:Chapter 14
    02:03:38.411                : en:Chapter 15
    02:12:13.008                : en:Chapter 16
    02:20:45.770                : en:Chapter 17
    02:27:27.630                : en:Chapter 18

     

  • Peso: 29.4 GiB

Sinopsis

En un lejano futuro, la galaxia conocida es gobernada mediante un sistema feudal de casas nobles bajo el mandato del Emperador. Las alianzas y la política giran entorno a un pequeño planeta, Dune, del que extrae la «especia melange», la materia prima que permite los viajes espaciales. La Casa Atreides, bajo el mandato del Duque Leto Atreides recibe el encargo de custodiar el planeta, relevando en la encomienda a sus históricos enemigos, los Harkonnen. Paul Atreides, hijo del duque, se verá atrapado en las intrigas políticas mientras descubre el destino que le deparan los desiertos de Dune.

Ficha técnica

Video trailer de la película

Enlaces de descarga

Rip de Bluray

Descargar Dune (2021) REMUX 1080p Latino – CMHDD




Aportes de DPeliculasHDmega la pass es:dpeliculashdmega.org Aportes de CinemaniaHD la pass es:cinemaniahdd.com Aportes recientes:cinemaniahdd.net
Guardado en : Aventura , Ciencia ficción

Películas relacionadas

descargar Dune (2021) REMUX 1080p Latino – CMHDD 1080p gratis, Dune (2021) REMUX 1080p Latino – CMHDD mega 1 link, Dune (2021) REMUX 1080p Latino – CMHDD pelicula completa, descargar Dune (2021) REMUX 1080p Latino – CMHDD gratis en mega.

Dune (2021) REMUX 1080p Latino – CMHDD pelicula full hd, Dune (2021) REMUX 1080p Latino – CMHDD mega latino, Dune (2021) REMUX 1080p Latino – CMHDD 4k latino, Dune (2021) REMUX 1080p Latino – CMHDD pelicula completa, Dune (2021) REMUX 1080p Latino – CMHDD descargar gratis, descargar Dune (2021) REMUX 1080p Latino – CMHDD pelicula latino, Dune (2021) REMUX 1080p Latino – CMHDD 1 link mega, Dune (2021) REMUX 1080p Latino – CMHDD 1 link google drive, Dune (2021) REMUX 1080p Latino – CMHDD hd 1080p latino.
Comentarios 0