×

¿Problemas para descargar con Mozilla, EDGE? Deshabilita la opción "Abrir vinculos en una pestaña nueva" tal como lo muestra ésta imagen.

Dune (1984) 1080p Latino

421 vistas

Información de Dune (1984) 1080p Latino

Datos de la película

  • Calidad: 1080p
  • Audio: Se especifica abajo de la Sinopsis
  • Subtitulos: Español Latino SRT - Ingles SRT
  • Resolución: 1920x816p
  • Formato: MKV
  • Codec: H.264
  • Encoder: CinefiloCool
  • Mediainfo: Clic para Mostrar Datos Ver
  • Dune (1984) 1080p Latino-CMHDD.mkv
    Format                      : Matroska
    Format version              : Version 4
    File size                   : 4.00 GiB
    Duration                    : 2 h 16 min
    Overall bit rate            : 4 206 kb/s
    Movie name                  : Dune (1984) CinemaniaHDD.Net
    Encoded date                : UTC 2021-01-06 18:34:10
    Writing application         : mkvmerge v51.0.0 ('I Wish') 64-bit
    Writing library             : libebml v1.4.0 + libmatroska v1.6.2
    Attachments                 : CINEMANIAHD.png

    Video
    ID                          : 1
    Format                      : AVC
    Format/Info                 : Advanced Video Codec
    Format profile              : High@L4.1
    Format settings             : CABAC / 5 Ref Frames
    Format settings, CABAC      : Yes
    Format settings, Reference  : 5 frames
    Codec ID                    : V_MPEG4/ISO/AVC
    Duration                    : 2 h 16 min
    Bit rate                    : 3 500 kb/s
    Width                       : 1 920 pixels
    Height                      : 816 pixels
    Display aspect ratio        : 2.35:1
    Frame rate mode             : Constant
    Frame rate                  : 24.000 FPS
    Color space                 : YUV
    Chroma subsampling          : 4:2:0
    Bit depth                   : 8 bits
    Scan type                   : Progressive
    Bits/(Pixel*Frame)          : 0.093
    Stream size                 : 3.33 GiB (83%)
    Title                       : HD1080p [CinemaniaHDD]
    Writing library             : x264 core 157 r2935 545de2f
    Encoding settings           : cabac=1 / ref=5 / deblock=1:-2:-2 / analyse=0x3:0x133 / me=umh / subme=9 / psy=1 / psy_rd=1.00:0.25 / mixed_ref=1 / me_range=16 / chroma_me=1 / trellis=2 / 8x8dct=1 / cqm=0 / deadzone=6,6 / fast_pskip=1 / chroma_qp_offset=-4 / threads=24 / lookahead_threads=2 / sliced_threads=0 / nr=0 / decimate=0 / interlaced=0 / bluray_compat=0 / constrained_intra=0 / bframes=3 / b_pyramid=2 / b_adapt=2 / b_bias=0 / direct=3 / weightb=1 / open_gop=0 / weightp=2 / keyint=240 / keyint_min=24 / scenecut=40 / intra_refresh=0 / rc_lookahead=60 / rc=2pass / mbtree=1 / bitrate=3500 / ratetol=1.0 / qcomp=0.80 / qpmin=0 / qpmax=69 / qpstep=4 / cplxblur=20.0 / qblur=0.5 / vbv_maxrate=62500 / vbv_bufsize=78125 / nal_hrd=none / filler=0 / ip_ratio=1.10 / aq=1:0.50
    Default                     : Yes
    Forced                      : Yes
    Color range                 : Limited
    Color primaries             : BT.709
    Transfer characteristics    : BT.709
    Matrix coefficients         : BT.709

    Audio #1
    ID                          : 2
    Format                      : AC-3
    Format/Info                 : Audio Coding 3
    Commercial name             : Dolby Digital
    Codec ID                    : A_AC3
    Duration                    : 2 h 16 min
    Bit rate mode               : Constant
    Bit rate                    : 256 kb/s
    Channel(s)                  : 2 channels
    Channel layout              : L R
    Sampling rate               : 48.0 kHz
    Frame rate                  : 31.250 FPS (1536 SPF)
    Compression mode            : Lossy
    Delay relative to video     : -5 ms
    Stream size                 : 250 MiB (6%)
    Title                       : Español Latino REDUB MX [CinemaniaHDD]
    Language                    : Spanish
    Service kind                : Complete Main
    Default                     : Yes
    Forced                      : Yes

    Audio #2
    ID                          : 3
    Format                      : AC-3
    Format/Info                 : Audio Coding 3
    Commercial name             : Dolby Digital
    Codec ID                    : A_AC3
    Duration                    : 2 h 16 min
    Bit rate mode               : Constant
    Bit rate                    : 448 kb/s
    Channel(s)                  : 6 channels
    Channel layout              : L R C LFE Ls Rs
    Sampling rate               : 48.0 kHz
    Frame rate                  : 31.250 FPS (1536 SPF)
    Compression mode            : Lossy
    Delay relative to video     : -5 ms
    Stream size                 : 437 MiB (11%)
    Title                       : Ingles [CinemaniaHDD]
    Language                    : English
    Service kind                : Complete Main
    Default                     : No
    Forced                      : No

    Text #1
    ID                          : 4
    Format                      : UTF-8
    Codec ID                    : S_TEXT/UTF8
    Codec ID/Info               : UTF-8 Plain Text
    Duration                    : 30 min 15 s
    Bit rate                    : 1 b/s
    Count of elements           : 10
    Stream size                 : 352 Bytes (0%)
    Title                       : Forzados-SRT [CinemaniaHDD]
    Language                    : Spanish
    Default                     : Yes
    Forced                      : Yes

    Text #2
    ID                          : 5
    Format                      : UTF-8
    Codec ID                    : S_TEXT/UTF8
    Codec ID/Info               : UTF-8 Plain Text
    Duration                    : 2 h 12 min
    Bit rate                    : 56 b/s
    Count of elements           : 1278
    Stream size                 : 54.4 KiB (0%)
    Title                       : Español-SRT [CinemaniaHDD]
    Language                    : Spanish
    Default                     : No
    Forced                      : No

    Text #3
    ID                          : 6
    Format                      : UTF-8
    Codec ID                    : S_TEXT/UTF8
    Codec ID/Info               : UTF-8 Plain Text
    Duration                    : 2 h 11 min
    Bit rate                    : 35 b/s
    Count of elements           : 1282
    Stream size                 : 34.6 KiB (0%)
    Title                       : Ingles-SRT [CinemaniaHDD]
    Language                    : English
    Default                     : No
    Forced                      : No

    Menu
    00:00:00.000                : en:Main Title/Wasteland of the Empire
    00:03:51.500                : en:Responsibility for Breakfast
    00:10:33.833                : en:Strange Dreams/The Test
    00:18:20.792                : en:In a Fighting Mood
    00:24:48.250                : en:The World of Spice
    00:30:27.417                : en:An Elegant and Vicious Plan
    00:36:50.542                : en:Looking for Allies
    00:41:43.958                : en:Strange, Dry Planet
    00:47:53.083                : en:The Value of Water
    00:54:04.375                : en:A Risky Tax Scheme
    00:59:38.292                : en:Traps and How to Evade Them
    01:06:47.417                : en:"I Would Change Nothing"
    01:15:37.708                : en:First Time in a Stillsuit?
    01:20:59.042                : en:Worm Attack
    01:26:12.292                : en:The Leader's Legacy
    01:31:00.542                : en:Distracted by Confidence
    01:37:22.958                : en:Things Change/"The Mahdi"
    01:48:01.833                : en:Hunter-Seeker and the Maid
    01:55:04.500                : en:Blessed Are the Incompetent
    02:02:29.708                : en:Parties, Politics and Cannibals
    02:11:00.792                : en:Gurney's Loyalty

  • Peso: 4.00 GiB

Sinopsis

Desargar Dune (1984) 1080p Latino. Por orden imperial la familia Atreides deberá hacerse cargo de la explotacion del desértico planeta de Arrakis, conocido también como «Dune», el único planeta donde se encuentra «la especia», una potente droga que, además, es necesaria para los vuelos espaciales. Anteriormente el planeta había sido gobernado por los Harkonen, que han ejercido su mandato con puño de hierro, dejando una huella indeleble en la población indígena del planeta. Cuando los Harkonen atacan el planeta con el beneplácito del Emperador para retomar su posición dominante sobre el planeta, Paul, el hijo del duque Leto Atreides, deberá huir al desierto, donde le esperan múltiples peligros, y una última oportunidad de vengarse y volver a su legítimo lugar como gobernante de Arrakis.

Audio Español Latino AC3 2.0 Redub Mexico – Ingles AC3 5.1 Bluray
RESUBIDO!

Ficha técnica

Video trailer de la película

Enlaces de descarga

Aportes de DPeliculasHDmega la pass es:dpeliculashdmega.org Aportes de CinemaniaHD la pass es:cinemaniahdd.com

Películas relacionadas

  • La Guerra Del Futuro (2022) NF WEB-DL 1080p Latino

    La Guerra Del Futuro (2022) NF WEB-DL 1080p Latino

    2022
    La Guerra Del Futuro (2022) NF WEB-DL 1080p Latino

    1h 41m 2022

    Descargar La Guerra Del Futuro (2022) NF WEB-DL 1080p Latino. Tras la caída de un meteorito que alberga...

    Director: Ng Yuen-fai

    Género: Acción

    Actores: Tse Kwan-Ho

  • Super… ¿quién? (2021) HD 1080p Latino

    Super… ¿quién? (2021) HD 1080p Latino

    2022
    Super… ¿quién? (2021) HD 1080p Latino

    1h 22m 2022

    Descargar Super... ¿quién? (2021) HD 1080p Latino. Cedric (Philippe Lacheau) intenta ganarse la vida...

    Director: Philippe Lacheau

    Género: Acción

    Actores: Yves Yan

  • Super… ¿quién? (2021) REMUX 1080p Latino

    Super… ¿quién? (2021) REMUX 1080p Latino

    2022
    Super… ¿quién? (2021) REMUX 1080p Latino

    1h 22m 2022

    Descargar Super... ¿quién? (2021) REMUX 1080p Latino. Cedric (Philippe Lacheau) intenta ganarse la...

    Director: Philippe Lacheau

    Género: Acción

    Actores: Yves Yan

  • Trol (2022) NF WEB-DL 1080p Latino

    Trol (2022) NF WEB-DL 1080p Latino

    2022
    Trol (2022) NF WEB-DL 1080p Latino

    1h 43m 2022

    Las autoridades recurren a una audaz paleontóloga para evitar que un trol ancestral, al que ha despertado...

    Director: Sascha Marden

    Género: Acción

    Actores: Yusuf Toosh Ibra

descargar Dune (1984) 1080p Latino 1080p 1080p gratis, Dune (1984) 1080p Latino 1080p mega 1 link, Dune (1984) 1080p Latino 1080p pelicula completa, descargar Dune (1984) 1080p Latino 1080p gratis en mega.

Dune (1984) 1080p Latino pelicula full hd, Dune (1984) 1080p Latino mega latino, Dune (1984) 1080p Latino 4k latino, Dune (1984) 1080p Latino pelicula completa, Dune (1984) 1080p Latino descargar gratis, descargar Dune (1984) 1080p Latino pelicula latino, Dune (1984) 1080p Latino 1 link mega, Dune (1984) 1080p Latino 1 link google drive, Dune (1984) 1080p Latino hd 1080p latino.
Comentarios 0