×

¿Problemas para descargar con Mozilla, EDGE? Deshabilita la opción "Abrir vinculos en una pestaña nueva" tal como lo muestra ésta imagen.

Dune (1984) EXTENDED REMUX 1080p SUB

395 vistas

Información de Dune (1984) EXTENDED REMUX 1080p SUB

Datos de la película

  • Calidad: Full 1080p
  • Audio: Se especifica abajo de la Sinopsis
  • Subtitulos: Español Latino SRT
  • Resolución: 1920x1080p
  • Formato: MKV
  • Codec: H.264
  • Encoder: CinefiloCool
  • Mediainfo: Clic para Mostrar Datos Ver
  • Dune (1984) EXTENDED REMUX 1080p Sub-CMHDD.mkv
    Format                      : Matroska
    Format version              : Version 4
    File size                   : 29.6 GiB
    Duration                    : 2 h 57 min
    Overall bit rate mode       : Variable
    Overall bit rate            : 23.9 Mb/s
    Movie name                  : Dune (1984) CinemaniaHDD.Net
    Encoded date                : UTC 2021-01-05 07:21:50
    Writing application         : mkvmerge v51.0.0 ('I Wish') 64-bit
    Writing library             : libebml v1.4.0 + libmatroska v1.6.2
    Attachments                 : CINEMANIAHD.png

    Video
    ID                          : 1
    Format                      : AVC
    Format/Info                 : Advanced Video Codec
    Format profile              : High@L4.1
    Format settings             : CABAC / 3 Ref Frames
    Format settings, CABAC      : Yes
    Format settings, Reference  : 3 frames
    Codec ID                    : V_MPEG4/ISO/AVC
    Duration                    : 2 h 57 min
    Bit rate mode               : Variable
    Bit rate                    : 21.9 Mb/s
    Maximum bit rate            : 30.0 Mb/s
    Width                       : 1 920 pixels
    Height                      : 1 080 pixels
    Display aspect ratio        : 16:9
    Frame rate mode             : Constant
    Frame rate                  : 23.976 (24000/1001) FPS
    Standard                    : NTSC
    Color space                 : YUV
    Chroma subsampling          : 4:2:0
    Bit depth                   : 8 bits
    Scan type                   : Progressive
    Bits/(Pixel*Frame)          : 0.441
    Stream size                 : 27.1 GiB (92%)
    Title                       : REMUX 1080p [CinemaniaHDD]
    Default                     : Yes
    Forced                      : Yes
    Color range                 : Limited
    Color primaries             : BT.709
    Transfer characteristics    : BT.709
    Matrix coefficients         : BT.709

    Audio
    ID                          : 2
    Format                      : DTS XLL
    Format/Info                 : Digital Theater Systems
    Commercial name             : DTS-HD Master Audio
    Codec ID                    : A_DTS
    Duration                    : 2 h 57 min
    Bit rate mode               : Variable
    Bit rate                    : 1 986 kb/s
    Channel(s)                  : 6 channels
    Channel layout              : C L R Ls Rs LFE
    Sampling rate               : 48.0 kHz
    Frame rate                  : 93.750 FPS (512 SPF)
    Bit depth                   : 16 bits
    Compression mode            : Lossless
    Stream size                 : 2.46 GiB (8%)
    Title                       : Ingles [CinemaniaHDD]
    Language                    : English
    Default                     : Yes
    Forced                      : Yes

    Text #1
    ID                          : 3
    Format                      : UTF-8
    Codec ID                    : S_TEXT/UTF8
    Codec ID/Info               : UTF-8 Plain Text
    Duration                    : 2 h 51 min
    Bit rate                    : 41 b/s
    Count of elements           : 1396
    Stream size                 : 52.4 KiB (0%)
    Title                       : Español-SRT [CinemaniaHDD]
    Language                    : Spanish
    Default                     : Yes
    Forced                      : Yes

    Text #2
    ID                          : 4
    Format                      : PGS
    Muxing mode                 : zlib
    Codec ID                    : S_HDMV/PGS
    Codec ID/Info               : Picture based subtitle format used on BDs/HD-DVDs
    Duration                    : 2 h 50 min
    Bit rate                    : 30.0 kb/s
    Count of elements           : 3416
    Stream size                 : 36.6 MiB (0%)
    Title                       : Ingles-PGS [CinemaniaHDD]
    Language                    : English
    Default                     : No
    Forced                      : No

    Menu
    00:00:00.000                : en:Chapter 01
    00:09:15.722                : en:Chapter 02
    00:18:01.162                : en:Chapter 03
    00:30:50.806                : en:Chapter 04
    00:42:59.952                : en:Chapter 05
    00:54:04.408                : en:Chapter 06
    01:02:34.648                : en:Chapter 07
    01:13:01.422                : en:Chapter 08
    01:24:26.644                : en:Chapter 09
    01:30:18.746                : en:Chapter 10
    01:45:28.822                : en:Chapter 11
    01:55:23.248                : en:Chapter 12
    02:12:18.222                : en:Chapter 13
    02:23:30.644                : en:Chapter 14
    02:33:13.476                : en:Chapter 15
    02:42:31.366                : en:Chapter 16
    02:47:23.574                : en:Chapter 17
    02:53:47.214                : en:Chapter 18

  • Peso: 29.6 GiB

Sinopsis

Descargar Dune (1984) EXTENDED REMUX 1080p SUB. Por orden imperial la familia Atreides deberá hacerse cargo de la explotacion del desértico planeta de Arrakis, conocido también como «Dune», el único planeta donde se encuentra «la especia», una potente droga que, además, es necesaria para los vuelos espaciales. Anteriormente el planeta había sido gobernado por los Harkonen, que han ejercido su mandato con puño de hierro, dejando una huella indeleble en la población indígena del planeta. Cuando los Harkonen atacan el planeta con el beneplácito del Emperador para retomar su posición dominante sobre el planeta, Paul, el hijo del duque Leto Atreides, deberá huir al desierto, donde le esperan múltiples peligros, y una última oportunidad de vengarse y volver a su legítimo lugar como gobernante de Arrakis.

Audio Ingles DTS-HD 5.1 Bluray
RESUBIDO!

NOTA:
Proximamente para usuarios Free, Disponible Solo para VIP!! 🙂

Ficha técnica

Video trailer de la película

Enlaces de descarga

Rip de Bluray

Descargar Dune (1984) EXTENDED REMUX 1080p SUB




Aportes de DPeliculasHDmega la pass es:dpeliculashdmega.org Aportes de CinemaniaHD la pass es:cinemaniahdd.com
Guardado en : Acción , Aventura , Ciencia ficción , Remux

Películas relacionadas

  • La Guerra Del Futuro (2022) NF WEB-DL 1080p Latino

    La Guerra Del Futuro (2022) NF WEB-DL 1080p Latino

    2022
    La Guerra Del Futuro (2022) NF WEB-DL 1080p Latino

    1h 41m 2022

    Descargar La Guerra Del Futuro (2022) NF WEB-DL 1080p Latino. Tras la caída de un meteorito que alberga...

    Director: Ng Yuen-fai

    Género: Acción

    Actores: Tse Kwan-Ho

  • Super… ¿quién? (2021) HD 1080p Latino

    Super… ¿quién? (2021) HD 1080p Latino

    2022
    Super… ¿quién? (2021) HD 1080p Latino

    1h 22m 2022

    Descargar Super... ¿quién? (2021) HD 1080p Latino. Cedric (Philippe Lacheau) intenta ganarse la vida...

    Director: Philippe Lacheau

    Género: Acción

    Actores: Yves Yan

  • Super… ¿quién? (2021) REMUX 1080p Latino

    Super… ¿quién? (2021) REMUX 1080p Latino

    2022
    Super… ¿quién? (2021) REMUX 1080p Latino

    1h 22m 2022

    Descargar Super... ¿quién? (2021) REMUX 1080p Latino. Cedric (Philippe Lacheau) intenta ganarse la...

    Director: Philippe Lacheau

    Género: Acción

    Actores: Yves Yan

  • Trol (2022) NF WEB-DL 1080p Latino

    Trol (2022) NF WEB-DL 1080p Latino

    2022
    Trol (2022) NF WEB-DL 1080p Latino

    1h 43m 2022

    Las autoridades recurren a una audaz paleontóloga para evitar que un trol ancestral, al que ha despertado...

    Director: Sascha Marden

    Género: Acción

    Actores: Yusuf Toosh Ibra

descargar Dune (1984) EXTENDED REMUX 1080p SUB Full 1080p 1080p gratis, Dune (1984) EXTENDED REMUX 1080p SUB Full 1080p mega 1 link, Dune (1984) EXTENDED REMUX 1080p SUB Full 1080p pelicula completa, descargar Dune (1984) EXTENDED REMUX 1080p SUB Full 1080p gratis en mega.

Dune (1984) EXTENDED REMUX 1080p SUB pelicula full hd, Dune (1984) EXTENDED REMUX 1080p SUB mega latino, Dune (1984) EXTENDED REMUX 1080p SUB 4k latino, Dune (1984) EXTENDED REMUX 1080p SUB pelicula completa, Dune (1984) EXTENDED REMUX 1080p SUB descargar gratis, descargar Dune (1984) EXTENDED REMUX 1080p SUB pelicula latino, Dune (1984) EXTENDED REMUX 1080p SUB 1 link mega, Dune (1984) EXTENDED REMUX 1080p SUB 1 link google drive, Dune (1984) EXTENDED REMUX 1080p SUB hd 1080p latino.
Comentarios 0