×

¿Problemas para descargar con Mozilla, EDGE? Deshabilita la opción "Abrir vinculos en una pestaña nueva" tal como lo muestra ésta imagen.

Dumbo (1941) HD 1080p Latino – CMHDD

392 vistas

Información de Dumbo (1941) HD 1080p Latino – CMHDD

Datos de la película

  • Calidad: 1080p
  • Audio: Español Latino AC3 5.1 BLURAY - Ingles AC3 5.1 BLURAY
  • Subtitulos: Español Latino SRT- FORZADOS SRT
  • Resolución: 1440x1080p
  • Formato: MKV
  • Codec: H.264
  • Encoder: Dracarys
  • Mediainfo: Clic para Mostrar Datos Ver
  • Format                      : Matroska
    Format version              : Version 4
    File size                   : 2.15 GiB
    Duration                    : 1 h 3 min
    Overall bit rate            : 4 803 kb/s
    Movie name                  : Dumbo (1941) HD 1080p Latino - CMHDD
    Encoded date                : UTC 2020-08-08 00:48:29
    Writing application         : mkvmerge v46.0.0 ('No Deeper Escape') 64-bit
    Writing library             : libebml v1.3.10 + libmatroska v1.5.2

    Video
    ID                          : 1
    Format                      : AVC
    Format/Info                 : Advanced Video Codec
    Format profile              : High@L4.1
    Format settings             : CABAC / 5 Ref Frames
    Format settings, CABAC      : Yes
    Format settings, Reference  : 5 frames
    Codec ID                    : V_MPEG4/ISO/AVC
    Duration                    : 1 h 3 min
    Bit rate                    : 3 500 kb/s
    Width                       : 1 440 pixels
    Height                      : 1 080 pixels
    Display aspect ratio        : 4:3
    Frame rate mode             : Constant
    Frame rate                  : 23.976 (24000/1001) FPS
    Color space                 : YUV
    Chroma subsampling          : 4:2:0
    Bit depth                   : 8 bits
    Scan type                   : Progressive
    Bits/(Pixel*Frame)          : 0.094
    Stream size                 : 1.57 GiB (73%)
    Writing library             : x264 core 157 r2935 545de2f
    Encoding settings           : cabac=1 / ref=5 / deblock=1:0:0 / analyse=0x3:0x113 / me=hex / subme=8 / psy=1 / psy_rd=1.00:0.00 / mixed_ref=1 / me_range=16 / chroma_me=1 / trellis=2 / 8x8dct=1 / cqm=0 / deadzone=21,11 / fast_pskip=1 / chroma_qp_offset=-2 / threads=24 / lookahead_threads=4 / sliced_threads=0 / nr=0 / decimate=1 / interlaced=0 / bluray_compat=0 / constrained_intra=0 / bframes=3 / b_pyramid=2 / b_adapt=1 / b_bias=0 / direct=3 / weightb=1 / open_gop=0 / weightp=2 / keyint=240 / keyint_min=24 / scenecut=40 / intra_refresh=0 / rc_lookahead=50 / rc=abr / mbtree=1 / bitrate=3500 / ratetol=1.0 / qcomp=0.60 / qpmin=0 / qpmax=69 / qpstep=4 / vbv_maxrate=62500 / vbv_bufsize=78125 / nal_hrd=none / filler=0 / ip_ratio=1.40 / aq=1:1.00
    Default                     : Yes
    Forced                      : No
    Color range                 : Limited
    Color primaries             : BT.709
    Transfer characteristics    : BT.709
    Matrix coefficients         : BT.709

    Audio #1
    ID                          : 2
    Format                      : AC-3
    Format/Info                 : Audio Coding 3
    Commercial name             : Dolby Digital
    Codec ID                    : A_AC3
    Duration                    : 1 h 3 min
    Bit rate mode               : Constant
    Bit rate                    : 640 kb/s
    Channel(s)                  : 6 channels
    Channel layout              : L R C LFE Ls Rs
    Sampling rate               : 48.0 kHz
    Frame rate                  : 31.250 FPS (1536 SPF)
    Compression mode            : Lossy
    Delay relative to video     : -5 ms
    Stream size                 : 293 MiB (13%)
    Language                    : Spanish
    Service kind                : Complete Main
    Default                     : Yes
    Forced                      : No

    Audio #2
    ID                          : 3
    Format                      : AC-3
    Format/Info                 : Audio Coding 3
    Commercial name             : Dolby Digital
    Codec ID                    : A_AC3
    Duration                    : 1 h 3 min
    Bit rate mode               : Constant
    Bit rate                    : 640 kb/s
    Channel(s)                  : 6 channels
    Channel layout              : L R C LFE Ls Rs
    Sampling rate               : 48.0 kHz
    Frame rate                  : 31.250 FPS (1536 SPF)
    Compression mode            : Lossy
    Delay relative to video     : -5 ms
    Stream size                 : 293 MiB (13%)
    Language                    : English
    Service kind                : Complete Main
    Default                     : No
    Forced                      : No

    Text #1
    ID                          : 4
    Format                      : UTF-8
    Codec ID                    : S_TEXT/UTF8
    Codec ID/Info               : UTF-8 Plain Text
    Duration                    : 1 h 0 min
    Bit rate                    : 0 b/s
    Count of elements           : 22
    Stream size                 : 440 Bytes (0%)
    Title                       : Forzados
    Language                    : Spanish
    Default                     : Yes
    Forced                      : No

    Text #2
    ID                          : 5
    Format                      : UTF-8
    Codec ID                    : S_TEXT/UTF8
    Codec ID/Info               : UTF-8 Plain Text
    Duration                    : 1 h 2 min
    Bit rate                    : 44 b/s
    Count of elements           : 644
    Stream size                 : 20.2 KiB (0%)
    Language                    : Spanish
    Default                     : No
    Forced                      : No

    Menu
    00:00:00.000                : :Chapter 1
    00:01:19.871                : :Chapter 2
    00:04:14.921                : :Chapter 3
    00:06:34.352                : :Chapter 4
    00:12:49.727                : :Chapter 5
    00:17:01.437                : :Chapter 6
    00:20:08.040                : :Chapter 7
    00:23:32.703                : :Chapter 8
    00:28:30.542                : :Chapter 9
    00:35:19.534                : :Chapter 10
    00:38:11.915                : :Chapter 11
    00:42:34.510                : :Chapter 12
    00:46:07.723                : :Chapter 13
    00:51:00.683                : :Chapter 14
    00:54:42.279                : :Chapter 15
    00:58:40.350                : :Chapter 16
    01:00:19.449                : :Chapter 17

  • Peso: 2.15 GiB

Sinopsis

Las cigüeñas llegan, como todos los años, hasta un pintoresco circo para repartir los bebés a sus respectivas mamás. La señora Dumbo, una elefanta, descubre que su bebé tiene unas orejas enormes; todas sus compañeras se ríen de él, pero la señora Dumbo lo defiende siempre, hasta el punto de ser encerrada por enfrentarse a todo aquel que se mofe de su retoño. El pequeño Dumbo, maltratado y ridiculizado por todos sus compañeros, sólo cuenta con la ayuda de un minúsculo ratoncito llamado Timothy, que decide hacer de él una estrella del circo.

Ficha técnica

Video trailer de la película

Enlaces de descarga

Rip de Bluray

Descargar Dumbo (1941) HD 1080p Latino – CMHDD




Aportes de DPeliculasHDmega la pass es:dpeliculashdmega.org Aportes de CinemaniaHD la pass es:cinemaniahdd.com
Guardado en : Animación , Familia , HD 1080p

Películas relacionadas

  • Corazón de tinta (2008) Full HD 1080p Latino

    Corazón de tinta (2008) Full HD 1080p Latino

    2008
    Corazón de tinta (2008) Full HD 1080p Latino

    1h 46m 2008

    Descargar Corazón de tinta (2008) Full HD 1080p Latino. Mortimer “Mo” Folchart y su hija de 12 años,...

    Director: Sharon Mansfield

    Género: Aventura

    Actores: Terry Cavanagh

  • Corazón de tinta (2008) REMUX 1080p Latino

    Corazón de tinta (2008) REMUX 1080p Latino

    2008
    Corazón de tinta (2008) REMUX 1080p Latino

    1h 46m 2008

    Descargar Corazón de tinta (2008) REMUX 1080p Latino. Mortimer “Mo” Folchart y su hija de 12 años,...

    Director: Sharon Mansfield

    Género: Aventura

    Actores: Tereza Srbová

  • Juego de espías (2001) 1080p Latino

    Juego de espías (2001) 1080p Latino

    2001
    Juego de espías (2001) 1080p Latino

    2h 6m 2001

    Descargar Juego de espías (2001) 1080p Latino. Corre el año 1991, y al veterano agente de la CIA Nathan...

    Director: Tony Scott

    Género: Acción

    Actores: Zsolt Zágoni

  • Asústame (2020) HD 1080p Latino

    Asústame (2020) HD 1080p Latino

    2020
    Asústame (2020) HD 1080p Latino

    1h 44m 2020

    Descargar Asústame (2020) HD 1080p Latino. Durante un corte de energía, dos extraños cuentan historias...

    Director: Josh Ruben

    Género: Comedia

    Actores: Rebecca Drysdale

descargar Dumbo (1941) HD 1080p Latino – CMHDD 1080p 1080p gratis, Dumbo (1941) HD 1080p Latino – CMHDD 1080p mega 1 link, Dumbo (1941) HD 1080p Latino – CMHDD 1080p pelicula completa, descargar Dumbo (1941) HD 1080p Latino – CMHDD 1080p gratis en mega.

Dumbo (1941) HD 1080p Latino – CMHDD pelicula full hd, Dumbo (1941) HD 1080p Latino – CMHDD mega latino, Dumbo (1941) HD 1080p Latino – CMHDD 4k latino, Dumbo (1941) HD 1080p Latino – CMHDD pelicula completa, Dumbo (1941) HD 1080p Latino – CMHDD descargar gratis, descargar Dumbo (1941) HD 1080p Latino – CMHDD pelicula latino, Dumbo (1941) HD 1080p Latino – CMHDD 1 link mega, Dumbo (1941) HD 1080p Latino – CMHDD 1 link google drive, Dumbo (1941) HD 1080p Latino – CMHDD hd 1080p latino.
Comentarios 0