Dulces o Trucos Happy Halloween (2018) AMAZON 1080p Español Latino

486 vistas
1 estrella2 estrellas3 estrellas4 estrellas5 estrellas (Ninguna valoración todavía)
Cargando…

Información de Dulces o Trucos Happy Halloween (2018) AMAZON 1080p Español Latino

Datos de la película

  • Calidad: WEBDL
  • Audio: Español Latino AC3 2.0 Capturado- Ingles AC3 5.1 AMAZON
  • Subtitulos: No
  • Resolución: 1920x960
  • Formato: MKV
  • Codec: H.264
  • Encoder: MZABI
  • Mediainfo: Clic para Mostrar Datos Ver
  • Trico.Tri.Happy.Halloween.2018.1080p.AMZN.Latino.mkv
    Format                      : Matroska
    Format version              : Version 4
    File size                   : 6.63 GiB
    Duration                    : 1 h 30 min
    Overall bit rate            : 10.5 Mb/s
    Movie name                  : CinemaniaHDD.net
    Encoded date                : UTC 2019-01-10 19:59:38
    Writing application         : mkvmerge v29.0.0 ('Like It Or Not') 64-bit
    Writing library             : libebml v1.3.6 + libmatroska v1.4.9

    Video
    ID                          : 1
    Format                      : AVC
    Format/Info                 : Advanced Video Codec
    Format profile              : [email protected]
    Format settings             : CABAC / 4 Ref Frames
    Format settings, CABAC      : Yes
    Format settings, ReFrames   : 4 frames
    Format settings, GOP        : M=4, N=48
    Codec ID                    : V_MPEG4/ISO/AVC
    Duration                    : 1 h 30 min
    Bit rate mode               : Constant
    Bit rate                    : 10 000 kb/s
    Width                       : 1 920 pixels
    Height                      : 960 pixels
    Display aspect ratio        : 2.000
    Frame rate mode             : Constant
    Frame rate                  : 23.976 (24000/1001) FPS
    Color space                 : YUV
    Chroma subsampling          : 4:2:0
    Bit depth                   : 8 bits
    Scan type                   : Progressive
    Bits/(Pixel*Frame)          : 0.226
    Stream size                 : 6.30 GiB (95%)
    Default                     : Yes
    Forced                      : No
    Color range                 : Limited
    Color primaries             : BT.709
    Transfer characteristics    : BT.709
    Matrix coefficients         : BT.709

    Audio #1
    ID                          : 2
    Format                      : AC-3
    Format/Info                 : Audio Coding 3
    Commercial name             : Dolby Digital
    Codec ID                    : A_AC3
    Duration                    : 1 h 30 min
    Bit rate mode               : Constant
    Bit rate                    : 256 kb/s
    Channel(s)                  : 2 channels
    Channel layout              : L R
    Sampling rate               : 48.0 kHz
    Frame rate                  : 31.250 FPS (1536 SPF)
    Bit depth                   : 16 bits
    Compression mode            : Lossy
    Delay relative to video     : 4 ms
    Stream size                 : 166 MiB (2%)
    Title                       : Español Latino / www.cinemaniahdd.net
    Service kind                : Complete Main
    Default                     : Yes
    Forced                      : No

    Audio #2
    ID                          : 3
    Format                      : E-AC-3
    Format/Info                 : Enhanced AC-3
    Commercial name             : Dolby Digital Plus
    Codec ID                    : A_EAC3
    Duration                    : 1 h 30 min
    Bit rate mode               : Constant
    Bit rate                    : 256 kb/s
    Channel(s)                  : 6 channels
    Channel layout              : L R C LFE Ls Rs
    Sampling rate               : 48.0 kHz
    Frame rate                  : 31.250 FPS (1536 SPF)
    Compression mode            : Lossy
    Stream size                 : 166 MiB (2%)
    Title                       : English
    Language                    : English
    Service kind                : Complete Main
    Default                     : No
    Forced                      : No

    Text
    ID                          : 4
    Format                      : UTF-8
    Codec ID                    : S_TEXT/UTF8
    Codec ID/Info               : UTF-8 Plain Text
    Duration                    : 1 h 28 min
    Bit rate                    : 72 b/s
    Count of elements           : 1782
    Stream size                 : 47.0 KiB (0%)
    Title                       : English [SDH]
    Language                    : English
    Default                     : No
    Forced                      : No

  • Peso: 6.63 GiB

Sinopsis

Una familia se muda de nuevo a Miami para cuidar de su abuela viuda. Después de mudarse a una casa encantada, la familia aprende las intenciones de los fantasmas que la habitan.

Ficha técnica

  • Titulo original: TricOTri: Happy Halloween
  • Fecha de lanzamiento: 28-09-2018 (United States of America)
  • Director: Christian Vogeler
  • Género: Comedia, Familia, Terror
  • Puntuación: 0.0 0 votos
  • Duración:
    1h 30m

Video trailer de la película

Enlaces de descarga

Rip de Bluray

Descargar Dulces o Trucos Happy Halloween (2018) AMAZON 1080p Español Latino




Aportes de DPeliculasHDmega la pass es:dpeliculashdmega.org Aportes de CinemaniaHD la pass es:cinemaniahdd.com
Guardado en : Comedia , Familia , Terror

Películas relacionadas

  • Time Freak (2018) Full 1080p Español Latino

    2018
    Time Freak (2018) Full 1080p Español Latino

    4.0 1h 44m 2018

    Descargar Time Freak (2018) Full 1080p Latino, Mega, Google Drive, Torrent. Un joven estudiante de física...

    Director: Andrew Bowler

    Género: Ciencia ficción

    Actores: William Peltz

  • Time Freak (2018) 1080p Español Latino

    2018
    Time Freak (2018) 1080p Español Latino

    4.0 1h 44m 2018

    Descargar Time Freak (2018) 1080p Latino, Mega, Google Drive, Torrent. Un joven estudiante de física...

    Director: Andrew Bowler

    Género: Ciencia ficción

    Actores: William Peltz

  • Halloween (2018) Full 1080p Latino

    2018
    Halloween (2018) Full 1080p Latino

    4.7 2h 0m 2018

    Descargar Halloween (2018) Full 1080p Latino, Mega, Google Drive, Torrent. Jamie Lee Curtis regresa a...

    Director: David Gordon Green

    Género: FULL 1080p Plateadas

    Actores: Willie Tyrone Ferguson

Comentarios 0