×

¿Problemas para descargar con Mozilla, EDGE? Deshabilita la opción "Abrir vinculos en una pestaña nueva" tal como lo muestra ésta imagen.

Patoaventuras la película: El tesoro de la lámpara perdida (1990) WEB 1080p Latino-CMHDD

49 vistas

Información de Patoaventuras la película: El tesoro de la lámpara perdida (1990) WEB 1080p Latino-CMHDD

Datos de la película

  • Calidad: WEBDL
  • Audio: Se especifica abajo de la Sinopsis
  • Subtitulos: Español Latino SRT - Ingles SRT
  • Resolución: 1920x1080p
  • Formato: MKV
  • Codec: H.264
  • Encoder: CinefiloCool
  • Mediainfo: Clic para Mostrar Datos Ver
  • DuckTales.The.Movie.Treasure.of.the.Lost.Lamp.1990.WEB.1080p.Latino-CC@CMHDD.mkv
    Format                      : Matroska
    Format version              : Version 4
    File size                   : 4.51 GiB
    Duration                    : 1 h 13 min
    Overall bit rate mode       : Variable
    Overall bit rate            : 8 751 kb/s
    Movie name                  : DuckTales - The Movie Treasure of the Lost Lamp (1990) CinemaniaHDD.Net
    Encoded date                : UTC 2024-03-09 03:23:00
    Writing application         : mkvmerge v56.1.0 ('My Friend') 64-bit
    Writing library             : libebml v1.4.2 + libmatroska v1.6.4
    Attachments                 : CINEMANIAHD.png

    Video
    ID                          : 1
    Format                      : AVC
    Format/Info                 : Advanced Video Codec
    Format profile              : High@L4
    Format settings             : CABAC / 4 Ref Frames
    Format settings, CABAC      : Yes
    Format settings, Reference  : 4 frames
    Codec ID                    : V_MPEG4/ISO/AVC
    Duration                    : 1 h 13 min
    Bit rate mode               : Variable
    Bit rate                    : 8 497 kb/s
    Maximum bit rate            : 12.7 Mb/s
    Width                       : 1 920 pixels
    Height                      : 1 080 pixels
    Display aspect ratio        : 16:9
    Frame rate mode             : Constant
    Frame rate                  : 23.976 (24000/1001) FPS
    Color space                 : YUV
    Chroma subsampling          : 4:2:0
    Bit depth                   : 8 bits
    Scan type                   : Progressive
    Bits/(Pixel*Frame)          : 0.171
    Stream size                 : 4.38 GiB (97%)
    Title                       : Web HD1080p [CinemaniaHDD]
    Default                     : Yes
    Forced                      : Yes
    Color range                 : Limited
    Color primaries             : BT.709
    Transfer characteristics    : BT.709
    Matrix coefficients         : BT.709

    Audio #1
    ID                          : 2
    Format                      : AAC LC
    Format/Info                 : Advanced Audio Codec Low Complexity
    Codec ID                    : A_AAC-2
    Duration                    : 1 h 13 min
    Bit rate                    : 125 kb/s
    Channel(s)                  : 2 channels
    Channel layout              : L R
    Sampling rate               : 48.0 kHz
    Frame rate                  : 46.875 FPS (1024 SPF)
    Compression mode            : Lossy
    Stream size                 : 66.2 MiB (1%)
    Title                       : Español Latino [CinemaniaHDD]
    Language                    : Spanish
    Default                     : Yes
    Forced                      : Yes

    Audio #2
    ID                          : 3
    Format                      : AAC LC
    Format/Info                 : Advanced Audio Codec Low Complexity
    Codec ID                    : A_AAC-2
    Duration                    : 1 h 13 min
    Bit rate                    : 125 kb/s
    Channel(s)                  : 2 channels
    Channel layout              : L R
    Sampling rate               : 48.0 kHz
    Frame rate                  : 46.875 FPS (1024 SPF)
    Compression mode            : Lossy
    Stream size                 : 66.2 MiB (1%)
    Title                       : Ingles [CinemaniaHDD]
    Language                    : English
    Default                     : No
    Forced                      : No

    Text #1
    ID                          : 4
    Format                      : UTF-8
    Codec ID                    : S_TEXT/UTF8
    Codec ID/Info               : UTF-8 Plain Text
    Duration                    : 18 min 30 s
    Bit rate                    : 0 b/s
    Count of elements           : 3
    Stream size                 : 90.0 Bytes (0%)
    Title                       : Forzados-SRT [CinemaniaHDD]
    Language                    : Spanish
    Default                     : Yes
    Forced                      : Yes

    Text #2
    ID                          : 5
    Format                      : UTF-8
    Codec ID                    : S_TEXT/UTF8
    Codec ID/Info               : UTF-8 Plain Text
    Duration                    : 1 h 8 min
    Bit rate                    : 51 b/s
    Count of elements           : 631
    Stream size                 : 26.1 KiB (0%)
    Title                       : Español-SRT [CinemaniaHDD]
    Language                    : Spanish
    Default                     : No
    Forced                      : No

    Text #3
    ID                          : 6
    Format                      : UTF-8
    Codec ID                    : S_TEXT/UTF8
    Codec ID/Info               : UTF-8 Plain Text
    Duration                    : 1 h 8 min
    Bit rate                    : 61 b/s
    Count of elements           : 1098
    Stream size                 : 31.3 KiB (0%)
    Title                       : Ingles-SRT [CinemaniaHDD]
    Language                    : English
    Default                     : No
    Forced                      : No

    Menu
    00:00:00.000                : Start
    00:18:48.629                : Scene 1
    00:31:54.790                : Scene 2
    00:42:54.575                : Scene 3
    00:59:33.699                : Scene 4
    01:09:19.993                : Credits

  • Peso: 4.51 GiB

Sinopsis

Descargar Patoaventuras la película: El tesoro de la lámpara perdida (1990) WEB 1080p Latino. Cuando la pandilla de “Patoaventuras” encuentra el legendario tesoro de la pirámide de Collie Baba, no imagina que entre las piedras preciosas hay una lámpara mágica en la que se esconde el Gran Genio de los deseos… Nuestros valientes amigos deberán luchar contra un malvado mago que pretende apoderarse de la lámpara.

Audio Español Latino AAC 2.0 – Ingles AAC 2.0

Ficha técnica

Video trailer de la película

Enlaces de descarga

Rip de Bluray

Descargar Patoaventuras la película: El tesoro de la lámpara perdida (1990) WEB 1080p Latino-CMHDD




Aportes de DPeliculasHDmega la pass es:dpeliculashdmega.org Aportes de CinemaniaHD la pass es:cinemaniahdd.com Aportes recientes:cinemaniahdd.net

Películas relacionadas

descargar Patoaventuras la película: El tesoro de la lámpara perdida (1990) WEB 1080p Latino-CMHDD WEBDL 1080p gratis, Patoaventuras la película: El tesoro de la lámpara perdida (1990) WEB 1080p Latino-CMHDD WEBDL mega 1 link, Patoaventuras la película: El tesoro de la lámpara perdida (1990) WEB 1080p Latino-CMHDD WEBDL pelicula completa, descargar Patoaventuras la película: El tesoro de la lámpara perdida (1990) WEB 1080p Latino-CMHDD WEBDL gratis en mega.

Patoaventuras la película: El tesoro de la lámpara perdida (1990) WEB 1080p Latino-CMHDD pelicula full hd, Patoaventuras la película: El tesoro de la lámpara perdida (1990) WEB 1080p Latino-CMHDD mega latino, Patoaventuras la película: El tesoro de la lámpara perdida (1990) WEB 1080p Latino-CMHDD 4k latino, Patoaventuras la película: El tesoro de la lámpara perdida (1990) WEB 1080p Latino-CMHDD pelicula completa, Patoaventuras la película: El tesoro de la lámpara perdida (1990) WEB 1080p Latino-CMHDD descargar gratis, descargar Patoaventuras la película: El tesoro de la lámpara perdida (1990) WEB 1080p Latino-CMHDD pelicula latino, Patoaventuras la película: El tesoro de la lámpara perdida (1990) WEB 1080p Latino-CMHDD 1 link mega, Patoaventuras la película: El tesoro de la lámpara perdida (1990) WEB 1080p Latino-CMHDD 1 link google drive, Patoaventuras la película: El tesoro de la lámpara perdida (1990) WEB 1080p Latino-CMHDD hd 1080p latino.
Comentarios 0