×

¿Problemas para descargar con Mozilla, EDGE? Deshabilita la opción "Abrir vinculos en una pestaña nueva" tal como lo muestra ésta imagen.

Driven: El origen de la leyenda (2018) Full HD 1080p Latino

1.337 vistas

Información de Driven: El origen de la leyenda (2018) Full HD 1080p Latino

Datos de la película

  • Calidad: Full 1080p
  • Audio: Español Latino AC3 5.1 iTUNES - Ingles DTS 5.1 BLURAY
  • Subtitulos: Español Latino PGS - Ingles PGS
  • Resolución: 1920x1080p
  • Formato: MKV
  • Codec: H.264
  • Encoder: CinefiloCool
  • Mediainfo: Clic para Mostrar Datos Ver
  • Driven (2018) Full HD 1080p Latino-CMHDD.mkv
    Format                      : Matroska
    Format version              : Version 4
    File size                   : 4.90 GiB
    Duration                    : 1 h 53 min
    Overall bit rate            : 6 163 kb/s
    Movie name                  : CinemaniaHDD.Net
    Encoded date                : UTC 2020-02-01 01:17:47
    Writing application         : mkvmerge v42.0.0 ('Overtime') 64-bit
    Writing library             : libebml v1.3.10 + libmatroska v1.5.2
    Attachments                 : CINEMANIAHD.png

    Video
    ID                          : 1
    Format                      : AVC
    Format/Info                 : Advanced Video Codec
    Format profile              : High@L4.1
    Format settings             : CABAC / 4 Ref Frames
    Format settings, CABAC      : Yes
    Format settings, ReFrames   : 4 frames
    Codec ID                    : V_MPEG4/ISO/AVC
    Duration                    : 1 h 53 min
    Bit rate                    : 4 160 kb/s
    Width                       : 1 920 pixels
    Height                      : 1 080 pixels
    Display aspect ratio        : 16:9
    Frame rate mode             : Constant
    Frame rate                  : 23.976 (24000/1001) FPS
    Color space                 : YUV
    Chroma subsampling          : 4:2:0
    Bit depth                   : 8 bits
    Scan type                   : Progressive
    Bits/(Pixel*Frame)          : 0.084
    Stream size                 : 3.31 GiB (68%)
    Title                       : Full HD1080p [Bluray]
    Writing library             : x264 core 157 r2935 545de2f
    Encoding settings           : cabac=1 / ref=4 / deblock=1:-1:-1 / analyse=0x3:0x133 / me=tesa / subme=11 / psy=1 / psy_rd=1.00:0.15 / mixed_ref=1 / me_range=24 / chroma_me=1 / trellis=2 / 8x8dct=1 / cqm=0 / deadzone=21,11 / fast_pskip=0 / chroma_qp_offset=-3 / threads=34 / lookahead_threads=8 / sliced_threads=0 / nr=0 / decimate=1 / interlaced=0 / bluray_compat=0 / constrained_intra=0 / bframes=16 / b_pyramid=2 / b_adapt=2 / b_bias=0 / direct=3 / weightb=1 / open_gop=0 / weightp=2 / keyint=240 / keyint_min=24 / scenecut=40 / intra_refresh=0 / rc_lookahead=60 / rc=crf / mbtree=1 / crf=20.0 / qcomp=0.60 / qpmin=0 / qpmax=69 / qpstep=4 / vbv_maxrate=62500 / vbv_bufsize=78125 / crf_max=0.0 / nal_hrd=none / filler=0 / ip_ratio=1.40 / aq=1:1.00
    Default                     : Yes
    Forced                      : Yes
    Color range                 : Limited
    Color primaries             : BT.709
    Transfer characteristics    : BT.709
    Matrix coefficients         : BT.709

    Audio #1
    ID                          : 2
    Format                      : DTS
    Format/Info                 : Digital Theater Systems
    Codec ID                    : A_DTS
    Duration                    : 1 h 53 min
    Bit rate mode               : Constant
    Bit rate                    : 1 509 kb/s
    Channel(s)                  : 6 channels
    Channel layout              : C L R Ls Rs LFE
    Sampling rate               : 48.0 kHz
    Frame rate                  : 93.750 FPS (512 SPF)
    Bit depth                   : 24 bits
    Compression mode            : Lossy
    Stream size                 : 1.20 GiB (24%)
    Title                       : DTS_5.1_Bluray_Eng
    Language                    : English
    Default                     : No
    Forced                      : No

    Audio #2
    ID                          : 3
    Format                      : AC-3
    Format/Info                 : Audio Coding 3
    Commercial name             : Dolby Digital
    Codec ID                    : A_AC3
    Duration                    : 1 h 53 min
    Bit rate mode               : Constant
    Bit rate                    : 448 kb/s
    Channel(s)                  : 6 channels
    Channel layout              : L R C LFE Ls Rs
    Sampling rate               : 48.0 kHz
    Frame rate                  : 31.250 FPS (1536 SPF)
    Bit depth                   : 16 bits
    Compression mode            : Lossy
    Delay relative to video     : 17 ms
    Stream size                 : 365 MiB (7%)
    Title                       : AC3_5.1_Web_Esp
    Language                    : Spanish
    Service kind                : Complete Main
    Default                     : Yes
    Forced                      : Yes

    Text #1
    ID                          : 4
    Format                      : PGS
    Muxing mode                 : zlib
    Codec ID                    : S_HDMV/PGS
    Codec ID/Info               : Picture based subtitle format used on BDs/HD-DVDs
    Duration                    : 1 h 52 min
    Bit rate                    : 61.8 kb/s
    Count of elements           : 3310
    Stream size                 : 49.9 MiB (1%)
    Title                       : Sub_Esp [PGS]
    Language                    : Spanish
    Default                     : No
    Forced                      : No

    Text #2
    ID                          : 5
    Format                      : PGS
    Muxing mode                 : zlib
    Codec ID                    : S_HDMV/PGS
    Codec ID/Info               : Picture based subtitle format used on BDs/HD-DVDs
    Duration                    : 1 h 52 min
    Bit rate                    : 70.1 kb/s
    Count of elements           : 3662
    Stream size                 : 56.6 MiB (1%)
    Title                       : Sub_Eng [PGS]
    Language                    : English
    Default                     : No
    Forced                      : No

    Text #3
    ID                          : 6
    Format                      : UTF-8
    Codec ID                    : S_TEXT/UTF8
    Codec ID/Info               : UTF-8 Plain Text
    Duration                    : 1 h 51 min
    Bit rate                    : 0 b/s
    Count of elements           : 10
    Stream size                 : 370 Bytes (0%)
    Title                       : Sub_Forzados
    Language                    : Spanish
    Default                     : Yes
    Forced                      : Yes

    Text #4
    ID                          : 7
    Format                      : UTF-8
    Codec ID                    : S_TEXT/UTF8
    Codec ID/Info               : UTF-8 Plain Text
    Duration                    : 1 h 51 min
    Bit rate                    : 72 b/s
    Count of elements           : 1646
    Stream size                 : 59.2 KiB (0%)
    Title                       : Sub_Esp
    Language                    : Spanish
    Default                     : No
    Forced                      : No

    Menu
    00:00:00.000                : en:Chapter 01
    00:09:19.308                : en:Chapter 02
    00:18:03.957                : en:Chapter 03
    00:30:09.557                : en:Chapter 04
    00:38:58.544                : en:Chapter 05
    00:46:08.056                : en:Chapter 06
    00:57:25.733                : en:Chapter 07
    01:08:21.972                : en:Chapter 08
    01:18:45.595                : en:Chapter 09
    01:24:16.176                : en:Chapter 10
    01:36:29.825                : en:Chapter 11
    01:43:08.599                : en:Chapter 12

  • Peso: 4.90 GiB

Sinopsis

Descargar Driven: El origen de la leyenda (2018) Full HD 1080p Latino. Basada en un hecho real de la vida de John DeLorean (Lee Pace), un hombre de negocios del mundo del automóvil que, al caer en picado su empresa, se vio envuelto en un caso de narcotráfico. Ambientada en la opulencia californiana de 1980, la historia ilustra la operación que llevó a cabo el FBI para intentar destapar el famoso escándalo de drogas y poder atrapar al fundador de la aclamada compañía «DeLorean Motor Company».

Ficha técnica

Video trailer de la película

Enlaces de descarga

Rip de Bluray

Descargar Driven: El origen de la leyenda (2018) Full HD 1080p Latino




Aportes de DPeliculasHDmega la pass es:dpeliculashdmega.org Aportes de CinemaniaHD la pass es:cinemaniahdd.com

Películas relacionadas

descargar Driven: El origen de la leyenda (2018) Full HD 1080p Latino Full 1080p 1080p gratis, Driven: El origen de la leyenda (2018) Full HD 1080p Latino Full 1080p mega 1 link, Driven: El origen de la leyenda (2018) Full HD 1080p Latino Full 1080p pelicula completa, descargar Driven: El origen de la leyenda (2018) Full HD 1080p Latino Full 1080p gratis en mega.

Driven: El origen de la leyenda (2018) Full HD 1080p Latino pelicula full hd, Driven: El origen de la leyenda (2018) Full HD 1080p Latino mega latino, Driven: El origen de la leyenda (2018) Full HD 1080p Latino 4k latino, Driven: El origen de la leyenda (2018) Full HD 1080p Latino pelicula completa, Driven: El origen de la leyenda (2018) Full HD 1080p Latino descargar gratis, descargar Driven: El origen de la leyenda (2018) Full HD 1080p Latino pelicula latino, Driven: El origen de la leyenda (2018) Full HD 1080p Latino 1 link mega, Driven: El origen de la leyenda (2018) Full HD 1080p Latino 1 link google drive, Driven: El origen de la leyenda (2018) Full HD 1080p Latino hd 1080p latino.
Comentarios 0