×

¿Problemas para descargar con Mozilla, EDGE? Deshabilita la opción "Abrir vinculos en una pestaña nueva" tal como lo muestra ésta imagen.

Drillbit Taylor (2008) EXTENDED REMUX 1080p Latino – CMHDD

243 vistas

Información de Drillbit Taylor (2008) EXTENDED REMUX 1080p Latino – CMHDD

Datos de la película

  • Calidad:
  • Audio: Español Latino AC3 5.1 BLURAY - Ingles AC3 5.1 BLURAY
  • Subtitulos: Español Latino PGS
  • Resolución: 1920x1080p
  • Formato: MKV
  • Codec: H.264
  • Encoder: Dracarys
  • Mediainfo: Clic para Mostrar Datos Ver
  • Format                      : Matroska
    Format version              : Version 4
    File size                   : 26.7 GiB
    Duration                    : 1 h 50 min
    Overall bit rate mode       : Variable
    Overall bit rate            : 34.7 Mb/s
    Movie name                  : Drillbit Taylor (2008) EXTENDED REMUX 1080p Latino - CMHDD
    Encoded date                : UTC 2021-08-01 03:16:10
    Writing application         : mkvmerge v56.1.0 ('My Friend') 64-bit
    Writing library             : libebml v1.4.2 + libmatroska v1.6.4
    Cover                       : Yes
    Attachments                 : cover.jpg

    Video
    ID                          : 1
    ID in the original source m : 4113 (0x1011)
    Format                      : VC-1
    Format profile              : Advanced@L3
    Codec ID                    : V_MS/VFW/FOURCC / WVC1
    Codec ID/Hint               : Microsoft
    Duration                    : 1 h 50 min
    Bit rate                    : 30.0 Mb/s
    Width                       : 1 920 pixels
    Height                      : 1 080 pixels
    Display aspect ratio        : 16:9
    Frame rate mode             : Constant
    Frame rate                  : 23.976 (24000/1001) FPS
    Color space                 : YUV
    Chroma subsampling          : 4:2:0
    Bit depth                   : 8 bits
    Scan type                   : Progressive
    Compression mode            : Lossy
    Bits/(Pixel*Frame)          : 0.602
    Stream size                 : 23.0 GiB (86%)
    Default                     : Yes
    Forced                      : No
    Original source medium      : Blu-ray

    Audio #1
    ID                          : 2
    ID in the original source m : 4352 (0x1100)
    Format                      : MLP FBA
    Format/Info                 : Meridian Lossless Packing FBA
    Commercial name             : Dolby TrueHD
    Codec ID                    : A_TRUEHD
    Duration                    : 1 h 50 min
    Bit rate mode               : Variable
    Bit rate                    : 3 353 kb/s
    Maximum bit rate            : 5 247 kb/s
    Channel(s)                  : 6 channels
    Channel layout              : L R C LFE Ls Rs
    Sampling rate               : 48.0 kHz
    Frame rate                  : 1 200.000 FPS (40 SPF)
    Compression mode            : Lossless
    Stream size                 : 2.58 GiB (10%)
    Language                    : English
    Default                     : No
    Forced                      : No
    Original source medium      : Blu-ray

    Audio #2
    ID                          : 3
    ID in the original source m : 4352 (0x1100)
    Format                      : AC-3
    Format/Info                 : Audio Coding 3
    Commercial name             : Dolby Digital
    Codec ID                    : A_AC3
    Duration                    : 1 h 50 min
    Bit rate mode               : Constant
    Bit rate                    : 640 kb/s
    Channel(s)                  : 6 channels
    Channel layout              : L R C LFE Ls Rs
    Sampling rate               : 48.0 kHz
    Frame rate                  : 31.250 FPS (1536 SPF)
    Compression mode            : Lossy
    Stream size                 : 504 MiB (2%)
    Language                    : English
    Service kind                : Complete Main
    Default                     : No
    Forced                      : No
    Original source medium      : Blu-ray

    Audio #3
    ID                          : 4
    ID in the original source m : 4354 (0x1102)
    Format                      : AC-3
    Format/Info                 : Audio Coding 3
    Commercial name             : Dolby Digital
    Codec ID                    : A_AC3
    Duration                    : 1 h 50 min
    Bit rate mode               : Constant
    Bit rate                    : 640 kb/s
    Channel(s)                  : 6 channels
    Channel layout              : L R C LFE Ls Rs
    Sampling rate               : 48.0 kHz
    Frame rate                  : 31.250 FPS (1536 SPF)
    Compression mode            : Lossy
    Stream size                 : 504 MiB (2%)
    Language                    : Spanish
    Service kind                : Complete Main
    Default                     : Yes
    Forced                      : No
    Original source medium      : Blu-ray

    Text #1
    ID                          : 5
    ID in the original source m : 4611 (0x1203)
    Format                      : PGS
    Muxing mode                 : zlib
    Codec ID                    : S_HDMV/PGS
    Codec ID/Info               : Picture based subtitle format used on BDs/HD-DVDs
    Duration                    : 1 h 49 min
    Bit rate                    : 43.6 kb/s
    Count of elements           : 3502
    Stream size                 : 34.2 MiB (0%)
    Language                    : Spanish
    Default                     : No
    Forced                      : No
    Original source medium      : Blu-ray

    Text #2
    ID                          : 6
    ID in the original source m : 4614 (0x1206)
    Format                      : PGS
    Muxing mode                 : zlib
    Codec ID                    : S_HDMV/PGS
    Codec ID/Info               : Picture based subtitle format used on BDs/HD-DVDs
    Duration                    : 1 h 24 min
    Bit rate                    : 119 b/s
    Count of elements           : 8
    Stream size                 : 74.1 KiB (0%)
    Language                    : Spanish
    Default                     : Yes
    Forced                      : No
    Original source medium      : Blu-ray

    Menu
    00:00:00.000                : Chapter 01
    00:08:08.529                : Chapter 02
    00:15:39.146                : Chapter 03
    00:23:20.148                : Chapter 04
    00:32:07.300                : Chapter 05
    00:39:46.008                : Chapter 06
    00:48:44.713                : Chapter 07
    00:58:20.371                : Chapter 08
    01:05:02.940                : Chapter 09
    01:11:50.014                : Chapter 10
    01:20:27.656                : Chapter 11
    01:24:12.714                : Chapter 12
    01:32:54.610                : Chapter 13
    01:43:37.044                : Chapter 14
    01:45:43.628                : Chapter 15

  • Peso: 26.7 GiB

Sinopsis

Durante el primer curso en el instituto, unos chicos deciden contratar a un guardaespaldas de poca monta (Owen Wilson) para que los proteja de unos matones que les están haciendo la vida imposible. Desde el primer día de clase, Ryan, Wade y Emmit se convierten en el blanco de las burlas de Filkins, el «matón» del instituto y un torturador nato. De pronto, lo que habían imaginado que podían ser los mejores años de su vida se convierten en un infierno. Es entonces cuando contratan a Drillbit Taylor (Wilson) como guardaespaldas.

Ficha técnica

Video trailer de la película

Enlaces de descarga

Rip de Bluray

Descargar Drillbit Taylor (2008) EXTENDED REMUX 1080p Latino – CMHDD


Aportes de DPeliculasHDmega la pass es:dpeliculashdmega.org Aportes de CinemaniaHD la pass es:cinemaniahdd.com
Guardado en : Comedia

Películas relacionadas

  • Hombre de familia (2000) REMUX 1080p Latino

    Hombre de familia (2000) REMUX 1080p Latino

    2000
    Hombre de familia (2000) REMUX 1080p Latino

    2h 1m 2000

    Descargar Hombre de familia (2000) REMUX 1080p Latino. Jack Campbell es un egocéntrico broker de Wall...

    Director: Robert Schroer

    Género: Comedia

    Actores: Wass Stevens

  • Te Amo Brother (2009) REMUX 1080p Latino

    Te Amo Brother (2009) REMUX 1080p Latino

    2009
    Te Amo Brother (2009) REMUX 1080p Latino

    1h 45m 2009

    Descargar Te Amo Brother (2009) REMUX 1080p Latino. Peter Klaven (Paul Rudd) es un joven que vive muy...

    Director: Scott Robertson

    Género: Comedia

    Actores: Vicki Davis

  • Asústame (2020) HD 1080p Latino

    Asústame (2020) HD 1080p Latino

    2020
    Asústame (2020) HD 1080p Latino

    1h 44m 2020

    Descargar Asústame (2020) HD 1080p Latino. Durante un corte de energía, dos extraños cuentan historias...

    Director: Josh Ruben

    Género: Comedia

    Actores: Rebecca Drysdale

  • Asústame (2020) PLACEBO Full HD 1080p Latino

    Asústame (2020) PLACEBO Full HD 1080p Latino

    2020
    Asústame (2020) PLACEBO Full HD 1080p Latino

    1h 44m 2020

    Descargar Asústame (2020) PLACEBO Full HD 1080p Latino. Durante un corte de energía, dos extraños...

    Director: Josh Ruben

    Género: Comedia

    Actores: Rebecca Drysdale

descargar Drillbit Taylor (2008) EXTENDED REMUX 1080p Latino – CMHDD 1080p gratis, Drillbit Taylor (2008) EXTENDED REMUX 1080p Latino – CMHDD mega 1 link, Drillbit Taylor (2008) EXTENDED REMUX 1080p Latino – CMHDD pelicula completa, descargar Drillbit Taylor (2008) EXTENDED REMUX 1080p Latino – CMHDD gratis en mega.

Drillbit Taylor (2008) EXTENDED REMUX 1080p Latino – CMHDD pelicula full hd, Drillbit Taylor (2008) EXTENDED REMUX 1080p Latino – CMHDD mega latino, Drillbit Taylor (2008) EXTENDED REMUX 1080p Latino – CMHDD 4k latino, Drillbit Taylor (2008) EXTENDED REMUX 1080p Latino – CMHDD pelicula completa, Drillbit Taylor (2008) EXTENDED REMUX 1080p Latino – CMHDD descargar gratis, descargar Drillbit Taylor (2008) EXTENDED REMUX 1080p Latino – CMHDD pelicula latino, Drillbit Taylor (2008) EXTENDED REMUX 1080p Latino – CMHDD 1 link mega, Drillbit Taylor (2008) EXTENDED REMUX 1080p Latino – CMHDD 1 link google drive, Drillbit Taylor (2008) EXTENDED REMUX 1080p Latino – CMHDD hd 1080p latino.