×

¿Problemas para descargar con Mozilla, EDGE? Deshabilita la opción "Abrir vinculos en una pestaña nueva" tal como lo muestra ésta imagen.

Drillbit Taylor (2008) EXTENDED Full HD 1080p Latino – CMHDD

227 vistas

Información de Drillbit Taylor (2008) EXTENDED Full HD 1080p Latino – CMHDD

Datos de la película

  • Calidad: Full 1080p
  • Audio: Español Latino AC3 5.1 BLURAY - Ingles AC3 5.1 BLURAY
  • Subtitulos: Español Latino PGS
  • Resolución: 1920x1080p
  • Formato: MKV
  • Codec: H.264
  • Encoder: Dracarys
  • Mediainfo: Clic para Mostrar Datos Ver
  • Format                      : Matroska
    Format version              : Version 4
    File size                   : 6.86 GiB
    Duration                    : 1 h 50 min
    Overall bit rate            : 8 921 kb/s
    Movie name                  : Drillbit Taylor (2008) EXTENDED Full HD 1080p Latino - CMHDD
    Encoded date                : UTC 2021-08-08 14:55:03
    Writing application         : mkvmerge v56.1.0 ('My Friend') 64-bit
    Writing library             : libebml v1.4.2 + libmatroska v1.6.4 / Lavf58.76.100

    Video
    ID                          : 1
    Format                      : AVC
    Format/Info                 : Advanced Video Codec
    Format profile              : High@L4.1
    Format settings             : CABAC / 4 Ref Frames
    Format settings, CABAC      : Yes
    Format settings, Reference  : 4 frames
    Codec ID                    : V_MPEG4/ISO/AVC
    Duration                    : 1 h 50 min
    Bit rate                    : 7 625 kb/s
    Width                       : 1 920 pixels
    Height                      : 1 080 pixels
    Display aspect ratio        : 16:9
    Frame rate mode             : Constant
    Frame rate                  : 23.976 (24000/1001) FPS
    Color space                 : YUV
    Chroma subsampling          : 4:2:0
    Bit depth                   : 8 bits
    Scan type                   : Progressive
    Bits/(Pixel*Frame)          : 0.153
    Stream size                 : 5.87 GiB (85%)
    Writing library             : x264 core 163 r3059 b684ebe0
    Encoding settings           : cabac=1 / ref=4 / deblock=1:0:0 / analyse=0x3:0x133 / me=esa / subme=10 / psy=1 / psy_rd=1.00:0.00 / mixed_ref=1 / me_range=24 / chroma_me=1 / trellis=2 / 8x8dct=1 / cqm=0 / deadzone=21,11 / fast_pskip=1 / chroma_qp_offset=-2 / threads=24 / lookahead_threads=4 / sliced_threads=0 / nr=0 / decimate=1 / interlaced=0 / bluray_compat=0 / constrained_intra=0 / bframes=8 / b_pyramid=2 / b_adapt=2 / b_bias=0 / direct=3 / weightb=1 / open_gop=0 / weightp=2 / keyint=240 / keyint_min=24 / scenecut=40 / intra_refresh=0 / rc_lookahead=60 / rc=crf / mbtree=1 / crf=20.0 / qcomp=0.60 / qpmin=0 / qpmax=69 / qpstep=4 / vbv_maxrate=62500 / vbv_bufsize=78125 / crf_max=0.0 / nal_hrd=none / filler=0 / ip_ratio=1.40 / aq=1:1.00
    Default                     : Yes
    Forced                      : No
    Color range                 : Limited
    Color primaries             : BT.709
    Transfer characteristics    : BT.709
    Matrix coefficients         : BT.709

    Audio #1
    ID                          : 2
    Format                      : AC-3
    Format/Info                 : Audio Coding 3
    Commercial name             : Dolby Digital
    Codec ID                    : A_AC3
    Duration                    : 1 h 50 min
    Bit rate mode               : Constant
    Bit rate                    : 640 kb/s
    Channel(s)                  : 6 channels
    Channel layout              : L R C LFE Ls Rs
    Sampling rate               : 48.0 kHz
    Frame rate                  : 31.250 FPS (1536 SPF)
    Compression mode            : Lossy
    Stream size                 : 504 MiB (7%)
    Language                    : Spanish
    Service kind                : Complete Main
    Default                     : Yes
    Forced                      : No

    Audio #2
    ID                          : 3
    Format                      : AC-3
    Format/Info                 : Audio Coding 3
    Commercial name             : Dolby Digital
    Codec ID                    : A_AC3
    Duration                    : 1 h 50 min
    Bit rate mode               : Constant
    Bit rate                    : 640 kb/s
    Channel(s)                  : 6 channels
    Channel layout              : L R C LFE Ls Rs
    Sampling rate               : 48.0 kHz
    Frame rate                  : 31.250 FPS (1536 SPF)
    Compression mode            : Lossy
    Stream size                 : 504 MiB (7%)
    Language                    : English
    Service kind                : Complete Main
    Default                     : No
    Forced                      : No

    Text #1
    ID                          : 4
    Format                      : PGS
    Muxing mode                 : zlib
    Codec ID                    : S_HDMV/PGS
    Codec ID/Info               : Picture based subtitle format used on BDs/HD-DVDs
    Duration                    : 1 h 49 min
    Bit rate                    : 43.6 kb/s
    Count of elements           : 3502
    Stream size                 : 34.2 MiB (0%)
    Language                    : Spanish
    Default                     : No
    Forced                      : No

    Text #2
    ID                          : 5
    Format                      : PGS
    Muxing mode                 : zlib
    Codec ID                    : S_HDMV/PGS
    Codec ID/Info               : Picture based subtitle format used on BDs/HD-DVDs
    Duration                    : 1 h 24 min
    Bit rate                    : 119 b/s
    Count of elements           : 8
    Stream size                 : 74.1 KiB (0%)
    Language                    : Spanish
    Default                     : Yes
    Forced                      : No

    Menu
    00:00:00.000                : :Chapter 1
    00:08:08.613                : :Chapter 2
    00:15:39.230                : :Chapter 3
    00:23:20.232                : :Chapter 4
    00:32:07.342                : :Chapter 5
    00:39:46.092                : :Chapter 6
    00:48:44.755                : :Chapter 7
    00:58:20.455                : :Chapter 8
    01:05:03.024                : :Chapter 9
    01:11:50.056                : :Chapter 10
    01:20:27.698                : :Chapter 11
    01:24:12.756                : :Chapter 12
    01:32:54.694                : :Chapter 13
    01:43:37.086                : :Chapter 14
    01:45:43.712                : :Chapter 15

  • Peso: 6.86 GiB

Sinopsis

Durante el primer curso en el instituto, unos chicos deciden contratar a un guardaespaldas de poca monta (Owen Wilson) para que los proteja de unos matones que les están haciendo la vida imposible. Desde el primer día de clase, Ryan, Wade y Emmit se convierten en el blanco de las burlas de Filkins, el «matón» del instituto y un torturador nato. De pronto, lo que habían imaginado que podían ser los mejores años de su vida se convierten en un infierno. Es entonces cuando contratan a Drillbit Taylor (Wilson) como guardaespaldas.

Ficha técnica

Video trailer de la película

Enlaces de descarga

Rip de Bluray

Descargar Drillbit Taylor (2008) EXTENDED Full HD 1080p Latino – CMHDD




Aportes de DPeliculasHDmega la pass es:dpeliculashdmega.org Aportes de CinemaniaHD la pass es:cinemaniahdd.com
Guardado en : Comedia

Películas relacionadas

descargar Drillbit Taylor (2008) EXTENDED Full HD 1080p Latino – CMHDD Full 1080p 1080p gratis, Drillbit Taylor (2008) EXTENDED Full HD 1080p Latino – CMHDD Full 1080p mega 1 link, Drillbit Taylor (2008) EXTENDED Full HD 1080p Latino – CMHDD Full 1080p pelicula completa, descargar Drillbit Taylor (2008) EXTENDED Full HD 1080p Latino – CMHDD Full 1080p gratis en mega.

Drillbit Taylor (2008) EXTENDED Full HD 1080p Latino – CMHDD pelicula full hd, Drillbit Taylor (2008) EXTENDED Full HD 1080p Latino – CMHDD mega latino, Drillbit Taylor (2008) EXTENDED Full HD 1080p Latino – CMHDD 4k latino, Drillbit Taylor (2008) EXTENDED Full HD 1080p Latino – CMHDD pelicula completa, Drillbit Taylor (2008) EXTENDED Full HD 1080p Latino – CMHDD descargar gratis, descargar Drillbit Taylor (2008) EXTENDED Full HD 1080p Latino – CMHDD pelicula latino, Drillbit Taylor (2008) EXTENDED Full HD 1080p Latino – CMHDD 1 link mega, Drillbit Taylor (2008) EXTENDED Full HD 1080p Latino – CMHDD 1 link google drive, Drillbit Taylor (2008) EXTENDED Full HD 1080p Latino – CMHDD hd 1080p latino.
Comentarios 0