×

¿Problemas para descargar con Mozilla, EDGE? Deshabilita la opción "Abrir vinculos en una pestaña nueva" tal como lo muestra ésta imagen.

Dredd (2012) REMUX 1080p Latino – CNHDD

362 vistas

Información de Dredd (2012) REMUX 1080p Latino – CNHDD

Datos de la película

  • Calidad: Full 1080p
  • Audio: Español Latino AC3 5.1 BLURAY - Ingles DTS 5.1 BLURAY
  • Subtitulos: Español Latino SRT
  • Resolución: 1920x1080p
  • Formato: MKV
  • Codec: H.264
  • Encoder: Dracarys
  • Mediainfo: Clic para Mostrar Datos Ver
  • Format                      : Matroska
    Format version              : Version 4
    File size                   : 22.1 GiB
    Duration                    : 1 h 35 min
    Overall bit rate mode       : Variable
    Overall bit rate            : 33.0 Mb/s
    Movie name                  : Dredd (2012) REMUX 1080p Latino - CNHDD
    Encoded date                : UTC 2020-06-15 23:38:27
    Writing application         : mkvmerge v46.0.0 ('No Deeper Escape') 64-bit
    Writing library             : libebml v1.3.10 + libmatroska v1.5.2

    Video
    ID                          : 1
    Format                      : AVC
    Format/Info                 : Advanced Video Codec
    Format profile              : High@L4.1
    Format settings             : CABAC / 3 Ref Frames
    Format settings, CABAC      : Yes
    Format settings, Reference  : 3 frames
    Format settings, GOP        : M=1, N=12
    Codec ID                    : V_MPEG4/ISO/AVC
    Duration                    : 1 h 35 min
    Bit rate mode               : Variable
    Bit rate                    : 27.4 Mb/s
    Maximum bit rate            : 29.0 Mb/s
    Width                       : 1 920 pixels
    Height                      : 1 080 pixels
    Display aspect ratio        : 16:9
    Frame rate mode             : Constant
    Frame rate                  : 23.976 (24000/1001) FPS
    Color space                 : YUV
    Chroma subsampling          : 4:2:0
    Bit depth                   : 8 bits
    Scan type                   : Progressive
    Bits/(Pixel*Frame)          : 0.550
    Stream size                 : 18.3 GiB (83%)
    Default                     : Yes
    Forced                      : No

    Audio #1
    ID                          : 2
    Format                      : AC-3
    Format/Info                 : Audio Coding 3
    Commercial name             : Dolby Digital
    Codec ID                    : A_AC3
    Duration                    : 1 h 35 min
    Bit rate mode               : Constant
    Bit rate                    : 640 kb/s
    Channel(s)                  : 6 channels
    Channel layout              : L R C LFE Ls Rs
    Sampling rate               : 48.0 kHz
    Frame rate                  : 31.250 FPS (1536 SPF)
    Compression mode            : Lossy
    Stream size                 : 439 MiB (2%)
    Language                    : Spanish
    Service kind                : Complete Main
    Default                     : Yes
    Forced                      : No

    Audio #2
    ID                          : 3
    Format                      : DTS XLL
    Format/Info                 : Digital Theater Systems
    Commercial name             : DTS-HD Master Audio
    Codec ID                    : A_DTS
    Duration                    : 1 h 35 min
    Bit rate mode               : Variable
    Bit rate                    : 4 989 kb/s
    Channel(s)                  : 8 channels
    Channel layout              : C L R LFE Lb Rb Lss Rss
    Sampling rate               : 48.0 kHz
    Frame rate                  : 93.750 FPS (512 SPF)
    Bit depth                   : 24 bits
    Compression mode            : Lossless
    Stream size                 : 3.34 GiB (15%)
    Language                    : English
    Default                     : No
    Forced                      : No

    Text #1
    ID                          : 4
    Format                      : UTF-8
    Codec ID                    : S_TEXT/UTF8
    Codec ID/Info               : UTF-8 Plain Text
    Duration                    : 1 h 28 min
    Bit rate                    : 39 b/s
    Count of elements           : 748
    Stream size                 : 25.4 KiB (0%)
    Language                    : Spanish
    Default                     : No
    Forced                      : No

    Text #2
    ID                          : 5
    Format                      : PGS
    Muxing mode                 : zlib
    Codec ID                    : S_HDMV/PGS
    Codec ID/Info               : Picture based subtitle format used on BDs/HD-DVDs
    Duration                    : 1 h 28 min
    Bit rate                    : 25.6 kb/s
    Count of elements           : 1496
    Stream size                 : 16.1 MiB (0%)
    Language                    : Spanish
    Default                     : No
    Forced                      : No

  • Peso: 22.1 GiB

Sinopsis

En un futuro cercano, Norteamérica se ha convertido en un páramo asolado por la radiactividad. Una única y gran megalópolis se extiende a lo largo de la costa este: Mega City 1. Esta inmensa y violenta urbe cuenta con una población de más de 800 millones de personas, cada una de las cuales es un infractor en potencia. Los encargados de acabar con el caos e imponer el orden son unos individuos que actúan a la vez como agentes de la ley, jueces, jurados y verdugos. Al frente de ellos está Dredd (Karl Urban), una leyenda viva de la justicia que vive entregado por entero a hacer cumplir la ley. En una misión aparentemente rutinaria junto a Cassandra Anderson (Olivia Thrilby), una juez novata dotada de grandes habilidades psíquicas, se disponen a investigar un homicidio en un peligroso rascacielos de 200 pisos de altura, controlado por el clan de la despiadada Ma-Ma (Lena Headley).

Ficha técnica

Video trailer de la película

Enlaces de descarga

Rip de Bluray

Descargar Dredd (2012) REMUX 1080p Latino – CNHDD




Aportes de DPeliculasHDmega la pass es:dpeliculashdmega.org Aportes de CinemaniaHD la pass es:cinemaniahdd.com
Guardado en : Acción , Ciencia ficción , Remux

Películas relacionadas

descargar Dredd (2012) REMUX 1080p Latino – CNHDD Full 1080p 1080p gratis, Dredd (2012) REMUX 1080p Latino – CNHDD Full 1080p mega 1 link, Dredd (2012) REMUX 1080p Latino – CNHDD Full 1080p pelicula completa, descargar Dredd (2012) REMUX 1080p Latino – CNHDD Full 1080p gratis en mega.

Dredd (2012) REMUX 1080p Latino – CNHDD pelicula full hd, Dredd (2012) REMUX 1080p Latino – CNHDD mega latino, Dredd (2012) REMUX 1080p Latino – CNHDD 4k latino, Dredd (2012) REMUX 1080p Latino – CNHDD pelicula completa, Dredd (2012) REMUX 1080p Latino – CNHDD descargar gratis, descargar Dredd (2012) REMUX 1080p Latino – CNHDD pelicula latino, Dredd (2012) REMUX 1080p Latino – CNHDD 1 link mega, Dredd (2012) REMUX 1080p Latino – CNHDD 1 link google drive, Dredd (2012) REMUX 1080p Latino – CNHDD hd 1080p latino.
Comentarios 1
  • ocpgaiden - 19 junio, 2020

    Gracias por Dredd remux, saludos