×

¿Problemas para descargar con Mozilla, EDGE? Deshabilita la opción "Abrir vinculos en una pestaña nueva" tal como lo muestra ésta imagen.

Dredd (2012) Full HD 1080p Latino – CMHDD

462 vistas

Información de Dredd (2012) Full HD 1080p Latino – CMHDD

Datos de la película

  • Calidad: Full 1080p
  • Audio: Español Latino AC3 5.1 BLURAY - Ingles DTS 5.1 BLURAY
  • Subtitulos: Español Latino SRT
  • Resolución: 1920x1080p
  • Formato: MKV
  • Codec: H.264
  • Encoder: Dracarys
  • Mediainfo: Clic para Mostrar Datos Ver
  • Format                      : Matroska
    Format version              : Version 4
    File size                   : 10.5 GiB
    Duration                    : 1 h 35 min
    Overall bit rate mode       : Variable
    Overall bit rate            : 15.7 Mb/s
    Movie name                  : Dredd (2012) Full HD 1080p Latino - CNHDD
    Encoded date                : UTC 2020-06-15 23:36:01
    Writing application         : mkvmerge v46.0.0 ('No Deeper Escape') 64-bit
    Writing library             : libebml v1.3.10 + libmatroska v1.5.2

    Video
    ID                          : 1
    Format                      : AVC
    Format/Info                 : Advanced Video Codec
    Format profile              : High@L4.1
    Format settings             : CABAC / 4 Ref Frames
    Format settings, CABAC      : Yes
    Format settings, Reference  : 4 frames
    Codec ID                    : V_MPEG4/ISO/AVC
    Duration                    : 1 h 35 min
    Bit rate                    : 10.1 Mb/s
    Width                       : 1 920 pixels
    Height                      : 1 080 pixels
    Display aspect ratio        : 16:9
    Frame rate mode             : Constant
    Frame rate                  : 23.976 (24000/1001) FPS
    Color space                 : YUV
    Chroma subsampling          : 4:2:0
    Bit depth                   : 8 bits
    Scan type                   : Progressive
    Bits/(Pixel*Frame)          : 0.203
    Stream size                 : 6.74 GiB (64%)
    Writing library             : x264 core 157 r2935 545de2f
    Encoding settings           : cabac=1 / ref=4 / deblock=1:0:0 / analyse=0x3:0x133 / me=tesa / subme=11 / psy=1 / psy_rd=1.00:0.00 / mixed_ref=1 / me_range=24 / chroma_me=1 / trellis=2 / 8x8dct=1 / cqm=0 / deadzone=21,11 / fast_pskip=0 / chroma_qp_offset=-2 / threads=24 / lookahead_threads=6 / sliced_threads=0 / nr=0 / decimate=1 / interlaced=0 / bluray_compat=0 / constrained_intra=0 / bframes=16 / b_pyramid=2 / b_adapt=2 / b_bias=0 / direct=3 / weightb=1 / open_gop=0 / weightp=2 / keyint=240 / keyint_min=24 / scenecut=40 / intra_refresh=0 / rc_lookahead=60 / rc=crf / mbtree=1 / crf=20.0 / qcomp=0.60 / qpmin=0 / qpmax=69 / qpstep=4 / vbv_maxrate=62500 / vbv_bufsize=78125 / crf_max=0.0 / nal_hrd=none / filler=0 / ip_ratio=1.40 / aq=1:1.00
    Default                     : Yes
    Forced                      : No
    Color range                 : Limited
    Color primaries             : BT.709
    Transfer characteristics    : BT.709
    Matrix coefficients         : BT.709

    Audio #1
    ID                          : 2
    Format                      : AC-3
    Format/Info                 : Audio Coding 3
    Commercial name             : Dolby Digital
    Codec ID                    : A_AC3
    Duration                    : 1 h 35 min
    Bit rate mode               : Constant
    Bit rate                    : 640 kb/s
    Channel(s)                  : 6 channels
    Channel layout              : L R C LFE Ls Rs
    Sampling rate               : 48.0 kHz
    Frame rate                  : 31.250 FPS (1536 SPF)
    Compression mode            : Lossy
    Stream size                 : 439 MiB (4%)
    Language                    : Spanish
    Service kind                : Complete Main
    Default                     : Yes
    Forced                      : No

    Audio #2
    ID                          : 3
    Format                      : DTS XLL
    Format/Info                 : Digital Theater Systems
    Commercial name             : DTS-HD Master Audio
    Codec ID                    : A_DTS
    Duration                    : 1 h 35 min
    Bit rate mode               : Variable
    Bit rate                    : 4 989 kb/s
    Channel(s)                  : 8 channels
    Channel layout              : C L R LFE Lb Rb Lss Rss
    Sampling rate               : 48.0 kHz
    Frame rate                  : 93.750 FPS (512 SPF)
    Bit depth                   : 24 bits
    Compression mode            : Lossless
    Stream size                 : 3.34 GiB (32%)
    Language                    : English
    Default                     : No
    Forced                      : No

    Text #1
    ID                          : 4
    Format                      : UTF-8
    Codec ID                    : S_TEXT/UTF8
    Codec ID/Info               : UTF-8 Plain Text
    Duration                    : 1 h 28 min
    Bit rate                    : 39 b/s
    Count of elements           : 748
    Stream size                 : 25.4 KiB (0%)
    Language                    : Spanish
    Default                     : No
    Forced                      : No

    Text #2
    ID                          : 5
    Format                      : PGS
    Muxing mode                 : zlib
    Codec ID                    : S_HDMV/PGS
    Codec ID/Info               : Picture based subtitle format used on BDs/HD-DVDs
    Duration                    : 1 h 28 min
    Bit rate                    : 25.6 kb/s
    Count of elements           : 1496
    Stream size                 : 16.1 MiB (0%)
    Language                    : Spanish
    Default                     : No
    Forced                      : No

    Menu
    00:00:00.000                : :Chapter 1
    00:05:43.552                : :Chapter 2
    00:08:14.661                : :Chapter 3
    00:14:17.357                : :Chapter 4
    00:19:42.682                : :Chapter 5
    00:24:09.323                : :Chapter 6
    00:27:21.056                : :Chapter 7
    00:36:01.284                : :Chapter 8
    00:39:49.012                : :Chapter 9
    00:48:26.946                : :Chapter 10
    00:54:39.693                : :Chapter 11
    01:00:57.279                : :Chapter 12
    01:06:30.612                : :Chapter 13
    01:12:01.692                : :Chapter 14
    01:20:10.306                : :Chapter 15
    01:27:00.424                : :Chapter 16

  • Peso: 10.5 GiB

Sinopsis

En un futuro cercano, Norteamérica se ha convertido en un páramo asolado por la radiactividad. Una única y gran megalópolis se extiende a lo largo de la costa este: Mega City 1. Esta inmensa y violenta urbe cuenta con una población de más de 800 millones de personas, cada una de las cuales es un infractor en potencia. Los encargados de acabar con el caos e imponer el orden son unos individuos que actúan a la vez como agentes de la ley, jueces, jurados y verdugos. Al frente de ellos está Dredd (Karl Urban), una leyenda viva de la justicia que vive entregado por entero a hacer cumplir la ley. En una misión aparentemente rutinaria junto a Cassandra Anderson (Olivia Thrilby), una juez novata dotada de grandes habilidades psíquicas, se disponen a investigar un homicidio en un peligroso rascacielos de 200 pisos de altura, controlado por el clan de la despiadada Ma-Ma (Lena Headley).

Ficha técnica

Video trailer de la película

Enlaces de descarga

Rip de Bluray

Descargar Dredd (2012) Full HD 1080p Latino – CMHDD




Aportes de DPeliculasHDmega la pass es:dpeliculashdmega.org Aportes de CinemaniaHD la pass es:cinemaniahdd.com

Películas relacionadas

descargar Dredd (2012) Full HD 1080p Latino – CMHDD Full 1080p 1080p gratis, Dredd (2012) Full HD 1080p Latino – CMHDD Full 1080p mega 1 link, Dredd (2012) Full HD 1080p Latino – CMHDD Full 1080p pelicula completa, descargar Dredd (2012) Full HD 1080p Latino – CMHDD Full 1080p gratis en mega.

Dredd (2012) Full HD 1080p Latino – CMHDD pelicula full hd, Dredd (2012) Full HD 1080p Latino – CMHDD mega latino, Dredd (2012) Full HD 1080p Latino – CMHDD 4k latino, Dredd (2012) Full HD 1080p Latino – CMHDD pelicula completa, Dredd (2012) Full HD 1080p Latino – CMHDD descargar gratis, descargar Dredd (2012) Full HD 1080p Latino – CMHDD pelicula latino, Dredd (2012) Full HD 1080p Latino – CMHDD 1 link mega, Dredd (2012) Full HD 1080p Latino – CMHDD 1 link google drive, Dredd (2012) Full HD 1080p Latino – CMHDD hd 1080p latino.
Comentarios 2
  • The Principal - 18 junio, 2020

    wow amigo tremenda…tienes la viejita y las dos de total recall….gracias de antemano!

    • Dracarys - 18 junio, 2020

      Pronto amigo…
      Saludos