×

¿Problemas para descargar con Mozilla, EDGE? Deshabilita la opción "Abrir vinculos en una pestaña nueva" tal como lo muestra ésta imagen.

Dreamscape (1984) REMASTERED REMUX 1080p Latino – CMHDD

131 vistas

Información de Dreamscape (1984) REMASTERED REMUX 1080p Latino – CMHDD

Datos de la película

  • Calidad: Full 1080p
  • Audio: Español Latino AC3 2.0 BLURAY - Ingles DTS 5.1 BLURAY
  • Subtitulos: Español Latino SRT
  • Resolución: 19201080p
  • Formato: MKV
  • Codec: H.264
  • Encoder: Dracarys
  • Mediainfo: Clic para Mostrar Datos Ver
  • Format                      : Matroska
    Format version              : Version 4
    File size                   : 21.0 GiB
    Duration                    : 1 h 39 min
    Overall bit rate mode       : Variable
    Overall bit rate            : 30.3 Mb/s
    Movie name                  : Dreamscape (1984) REMASTERED REMUX 1080p Latino - CMHDD
    Encoded date                : UTC 2023-12-09 22:25:48
    Writing application         : mkvmerge v47.0.0 ('Black Flag') 64-bit
    Writing library             : libebml v1.3.10 + libmatroska v1.5.2

    Video
    ID                          : 1
    Format                      : AVC
    Format/Info                 : Advanced Video Codec
    Format profile              : High@L4.1
    Format settings             : CABAC / 4 Ref Frames
    Format settings, CABAC      : Yes
    Format settings, Reference  : 4 frames
    Codec ID                    : V_MPEG4/ISO/AVC
    Duration                    : 1 h 39 min
    Bit rate mode               : Variable
    Bit rate                    : 27.9 Mb/s
    Maximum bit rate            : 34.0 Mb/s
    Width                       : 1 920 pixels
    Height                      : 1 080 pixels
    Display aspect ratio        : 16:9
    Frame rate mode             : Constant
    Frame rate                  : 23.976 (24000/1001) FPS
    Color space                 : YUV
    Chroma subsampling          : 4:2:0
    Bit depth                   : 8 bits
    Scan type                   : Progressive
    Bits/(Pixel*Frame)          : 0.561
    Stream size                 : 19.3 GiB (92%)
    Language                    : English
    Default                     : Yes
    Forced                      : No

    Audio #1
    ID                          : 2
    Format                      : AC-3
    Format/Info                 : Audio Coding 3
    Commercial name             : Dolby Digital
    Codec ID                    : A_AC3
    Duration                    : 1 h 38 min
    Bit rate mode               : Constant
    Bit rate                    : 160 kb/s
    Channel(s)                  : 2 channels
    Channel layout              : L R
    Sampling rate               : 44.1 kHz
    Frame rate                  : 28.711 FPS (1536 SPF)
    Compression mode            : Lossy
    Stream size                 : 113 MiB (1%)
    Language                    : Spanish
    Service kind                : Complete Main
    Default                     : Yes
    Forced                      : No

    Audio #2
    ID                          : 3
    Format                      : DTS XLL
    Format/Info                 : Digital Theater Systems
    Commercial name             : DTS-HD Master Audio
    Codec ID                    : A_DTS
    Duration                    : 1 h 39 min
    Bit rate mode               : Variable
    Bit rate                    : 2 268 kb/s
    Channel(s)                  : 6 channels
    Channel layout              : C L R Ls Rs LFE
    Sampling rate               : 48.0 kHz
    Frame rate                  : 93.750 FPS (512 SPF)
    Bit depth                   : 24 bits
    Compression mode            : Lossless
    Stream size                 : 1.57 GiB (7%)
    Language                    : English
    Default                     : No
    Forced                      : No

    Text
    ID                          : 4
    Format                      : UTF-8
    Codec ID                    : S_TEXT/UTF8
    Codec ID/Info               : UTF-8 Plain Text
    Duration                    : 1 h 32 min
    Bit rate                    : 51 b/s
    Frame rate                  : 0.170 FPS
    Count of elements           : 943
    Stream size                 : 34.6 KiB (0%)
    Language                    : Spanish
    Default                     : Yes
    Forced                      : Yes

    Menu
    00:00:00.000                : en: Chapter 1
    00:01:52.612                : en: Chapter 2
    00:06:55.957                : en: Chapter 3
    00:15:43.776                : en: Chapter 4
    00:24:22.961                : en: Chapter 5
    00:35:18.533                : en: Chapter 6
    00:45:47.787                : en: Chapter 7
    00:55:08.889                : en: Chapter 8
    01:01:37.903                : en: Chapter 9
    01:14:51.612                : en: Chapter 10
    01:22:07.131                : en: Chapter 11
    01:30:47.025                : en: Chapter 12

     

  • Peso: 21.0 GiB

Sinopsis

Un médico (Max Von Sydow) ha entrenado a un joven (Dennis Quaid) para aparecer en los sueños de otras personas a través de la proyección astral. Su intención es conocer y diagnosticar los traumas que sufren sus pacientes, pero ciertas fuerzas maléficas intentarán utilizar ese poder con otros fines.

Ficha técnica

Video trailer de la película

Enlaces de descarga

Rip de Bluray

Descargar Dreamscape (1984) REMASTERED REMUX 1080p Latino – CMHDD




Aportes de DPeliculasHDmega la pass es:dpeliculashdmega.org Aportes de CinemaniaHD la pass es:cinemaniahdd.com Aportes recientes:cinemaniahdd.net
Guardado en : Aventura , Ciencia ficción , Terror

Películas relacionadas

descargar Dreamscape (1984) REMASTERED REMUX 1080p Latino – CMHDD Full 1080p 1080p gratis, Dreamscape (1984) REMASTERED REMUX 1080p Latino – CMHDD Full 1080p mega 1 link, Dreamscape (1984) REMASTERED REMUX 1080p Latino – CMHDD Full 1080p pelicula completa, descargar Dreamscape (1984) REMASTERED REMUX 1080p Latino – CMHDD Full 1080p gratis en mega.

Dreamscape (1984) REMASTERED REMUX 1080p Latino – CMHDD pelicula full hd, Dreamscape (1984) REMASTERED REMUX 1080p Latino – CMHDD mega latino, Dreamscape (1984) REMASTERED REMUX 1080p Latino – CMHDD 4k latino, Dreamscape (1984) REMASTERED REMUX 1080p Latino – CMHDD pelicula completa, Dreamscape (1984) REMASTERED REMUX 1080p Latino – CMHDD descargar gratis, descargar Dreamscape (1984) REMASTERED REMUX 1080p Latino – CMHDD pelicula latino, Dreamscape (1984) REMASTERED REMUX 1080p Latino – CMHDD 1 link mega, Dreamscape (1984) REMASTERED REMUX 1080p Latino – CMHDD 1 link google drive, Dreamscape (1984) REMASTERED REMUX 1080p Latino – CMHDD hd 1080p latino.
Comentarios 0