×

¿Problemas para descargar con Mozilla, EDGE? Deshabilita la opción "Abrir vinculos en una pestaña nueva" tal como lo muestra ésta imagen.

Detrás de las paredes (2011) REMUX 1080p Latino

244 vistas

Información de Detrás de las paredes (2011) REMUX 1080p Latino

Datos de la película

  • Calidad: Full 1080p
  • Audio: Español Latino AC3 5.1 BLURAY - Ingles DTS 5.1 BLURAY
  • Subtitulos: Español Latino PGS - Ingles PGS
  • Resolución: 1920x1080p
  • Formato: MKV
  • Codec: H.264
  • Encoder: CinefiloCool
  • Mediainfo: Clic para Mostrar Datos Ver
  • Detras De Las Paredes (2011) REMUX 1080p Latino-CMHDD.mkv
    Format                      : Matroska
    Format version              : Version 4
    File size                   : 15.4 GiB
    Duration                    : 1 h 31 min
    Overall bit rate mode       : Variable
    Overall bit rate            : 23.9 Mb/s
    Movie name                  : Dream House (2011) CinemaniaHDD.Net
    Encoded date                : UTC 2022-03-03 05:02:04
    Writing application         : mkvmerge v56.1.0 ('My Friend') 64-bit
    Writing library             : libebml v1.4.2 + libmatroska v1.6.4
    Attachments                 : CINEMANIAHD.png

    Video
    ID                          : 1
    ID in the original source m : 4113 (0x1011)
    Format                      : AVC
    Format/Info                 : Advanced Video Codec
    Format profile              : High@L4.1
    Format settings             : CABAC / 2 Ref Frames
    Format settings, CABAC      : Yes
    Format settings, Reference  : 2 frames
    Format settings, GOP        : M=1, N=10
    Codec ID                    : V_MPEG4/ISO/AVC
    Duration                    : 1 h 31 min
    Bit rate mode               : Variable
    Bit rate                    : 19.9 Mb/s
    Width                       : 1 920 pixels
    Height                      : 1 080 pixels
    Display aspect ratio        : 16:9
    Frame rate mode             : Constant
    Frame rate                  : 23.976 (24000/1001) FPS
    Color space                 : YUV
    Chroma subsampling          : 4:2:0
    Bit depth                   : 8 bits
    Scan type                   : Progressive
    Bits/(Pixel*Frame)          : 0.399
    Stream size                 : 12.8 GiB (83%)
    Title                       : REMUX HD1080p [CinemaniaHDD]
    Default                     : Yes
    Forced                      : Yes
    Original source medium      : Blu-ray

    Audio #1
    ID                          : 2
    Format                      : AC-3
    Format/Info                 : Audio Coding 3
    Commercial name             : Dolby Digital
    Codec ID                    : A_AC3
    Duration                    : 1 h 31 min
    Bit rate mode               : Constant
    Bit rate                    : 640 kb/s
    Channel(s)                  : 6 channels
    Channel layout              : L R C LFE Ls Rs
    Sampling rate               : 48.0 kHz
    Frame rate                  : 31.250 FPS (1536 SPF)
    Compression mode            : Lossy
    Stream size                 : 421 MiB (3%)
    Title                       : Español Latino [CinemaniaHDD]
    Language                    : Spanish
    Service kind                : Complete Main
    Default                     : Yes
    Forced                      : Yes

    Audio #2
    ID                          : 3
    ID in the original source m : 4352 (0x1100)
    Format                      : DTS XLL
    Format/Info                 : Digital Theater Systems
    Commercial name             : DTS-HD Master Audio
    Codec ID                    : A_DTS
    Duration                    : 1 h 31 min
    Bit rate mode               : Variable
    Bit rate                    : 3 391 kb/s
    Channel(s)                  : 6 channels
    Channel layout              : C L R Ls Rs LFE
    Sampling rate               : 48.0 kHz
    Frame rate                  : 93.750 FPS (512 SPF)
    Bit depth                   : 24 bits
    Compression mode            : Lossless
    Stream size                 : 2.18 GiB (14%)
    Title                       : Ingles [CinemaniaHDD]
    Language                    : English
    Default                     : No
    Forced                      : No
    Original source medium      : Blu-ray

    Text #1
    ID                          : 4
    ID in the original source m : 4611 (0x1203)
    Format                      : PGS
    Muxing mode                 : zlib
    Codec ID                    : S_HDMV/PGS
    Codec ID/Info               : Picture based subtitle format used on BDs/HD-DVDs
    Duration                    : 1 h 31 min
    Bit rate                    : 18.9 kb/s
    Count of elements           : 1850
    Stream size                 : 12.3 MiB (0%)
    Title                       : Español-PGS [CinemaniaHDD]
    Language                    : Spanish
    Default                     : No
    Forced                      : No
    Original source medium      : Blu-ray

    Text #2
    ID                          : 5
    ID in the original source m : 4608 (0x1200)
    Format                      : PGS
    Muxing mode                 : zlib
    Codec ID                    : S_HDMV/PGS
    Codec ID/Info               : Picture based subtitle format used on BDs/HD-DVDs
    Duration                    : 1 h 30 min
    Bit rate                    : 23.5 kb/s
    Count of elements           : 1948
    Stream size                 : 15.3 MiB (0%)
    Title                       : Ingles-PGS [CinemaniaHDD]
    Language                    : English
    Default                     : No
    Forced                      : No
    Original source medium      : Blu-ray

    Text #3
    ID                          : 6
    Format                      : UTF-8
    Codec ID                    : S_TEXT/UTF8
    Codec ID/Info               : UTF-8 Plain Text
    Duration                    : 1 h 28 min
    Bit rate                    : 0 b/s
    Count of elements           : 7
    Stream size                 : 203 Bytes (0%)
    Title                       : Forzados-SRT [CinemaniaHDD]
    Language                    : Spanish
    Default                     : Yes
    Forced                      : Yes

    Text #4
    ID                          : 7
    Format                      : UTF-8
    Codec ID                    : S_TEXT/UTF8
    Codec ID/Info               : UTF-8 Plain Text
    Duration                    : 1 h 30 min
    Bit rate                    : 38 b/s
    Count of elements           : 888
    Stream size                 : 25.4 KiB (0%)
    Title                       : Español-SRT [CinemaniaHDD]
    Language                    : Spanish
    Default                     : No
    Forced                      : No

    Menu
    00:00:00.000                : Chapter 01
    00:04:24.847                : Chapter 02
    00:09:23.771                : Chapter 03
    00:14:19.358                : Chapter 04
    00:20:19.009                : Chapter 05
    00:24:08.947                : Chapter 06
    00:28:12.524                : Chapter 07
    00:32:45.463                : Chapter 08
    00:35:15.196                : Chapter 09
    00:38:21.590                : Chapter 10
    00:41:12.845                : Chapter 11
    00:48:15.100                : Chapter 12
    00:55:58.688                : Chapter 13
    01:01:49.706                : Chapter 14
    01:05:21.042                : Chapter 15
    01:07:37.386                : Chapter 16
    01:12:23.297                : Chapter 17
    01:17:24.431                : Chapter 18
    01:21:33.555                : Chapter 19
    01:25:48.143                : Chapter 20

  • Peso: 15.4 GiB

Sinopsis

Descargar Detrás de las paredes (2011) REMUX 1080p Latino. Will Atenton, un editor de gran éxito, abandona su trabajo, un puesto con mucho poder en Manhattan, para irse a vivir con su mujer, Libby, y sus dos hijas a un pintoresco pueblo de Nueva Inglaterra. Pero cuando se empiezan a acostumbrar a su nueva vida, descubren que su perfecta casa ha sido el escenario del asesinato de una madre y sus hijos. Y todo el pueblo piensa que el crimen fue cometido por el marido, el único superviviente. Cuando Will comienza a investigar, no está seguro de si está empezando a ver fantasmas o es que la trágica historia le resulta demasiado cercana. Las únicas pistas provienen de Ann Patterson, una misteriosa vecina que conocía a los desaparecidos. Mientras Will y Ann van encajando las piezas del inquietante puzzle, tienen que descubrir quién asesinó a la familia antes de que vuelva a matar.

Disponible Solo Para VIP!!!

Ficha técnica

Video trailer de la película

Enlaces de descarga

Rip de Bluray

Descargar Detrás de las paredes (2011) REMUX 1080p Latino


Aportes de DPeliculasHDmega la pass es:dpeliculashdmega.org Aportes de CinemaniaHD la pass es:cinemaniahdd.com
Guardado en : Drama , Misterio , Remux , Suspenso

Películas relacionadas

  • Zola (2020) REMUX 1080p Latino

    Zola (2020) REMUX 1080p Latino

    2020
    Zola (2020) REMUX 1080p Latino

    1h 26m 2020

    Descargar Zola (2020) REMUX 1080p Latino. Una camarera accede a acompañar a una bailarina exótica,...

    Director: Sheri Davani

    Género: Comedia

    Actores: Ts Madison

  • Hocus Pocus: Abracadabra (1993) REMUX 1080p Latino

    Hocus Pocus: Abracadabra (1993) REMUX 1080p Latino

    1993
    Hocus Pocus: Abracadabra (1993) REMUX 1080p Latino

    1h 36m 1993

    Descargar Hocus Pocus: Abracadabra (1993) REMUX 1080p Latino. Tres brujas del siglo XII son invocadas...

    Director: Kenny Ortega

    Género: Comedia

    Actores: Vinessa Shaw

descargar Detrás de las paredes (2011) REMUX 1080p Latino Full 1080p 1080p gratis, Detrás de las paredes (2011) REMUX 1080p Latino Full 1080p mega 1 link, Detrás de las paredes (2011) REMUX 1080p Latino Full 1080p pelicula completa, descargar Detrás de las paredes (2011) REMUX 1080p Latino Full 1080p gratis en mega.

Detrás de las paredes (2011) REMUX 1080p Latino pelicula full hd, Detrás de las paredes (2011) REMUX 1080p Latino mega latino, Detrás de las paredes (2011) REMUX 1080p Latino 4k latino, Detrás de las paredes (2011) REMUX 1080p Latino pelicula completa, Detrás de las paredes (2011) REMUX 1080p Latino descargar gratis, descargar Detrás de las paredes (2011) REMUX 1080p Latino pelicula latino, Detrás de las paredes (2011) REMUX 1080p Latino 1 link mega, Detrás de las paredes (2011) REMUX 1080p Latino 1 link google drive, Detrás de las paredes (2011) REMUX 1080p Latino hd 1080p latino.
Comentarios 0