×

¿Problemas para descargar con Mozilla, EDGE? Deshabilita la opción "Abrir vinculos en una pestaña nueva" tal como lo muestra ésta imagen.

Detrás de las paredes (2011) OPEN MATTE Web-DL 1080p Latino

692 vistas

Información de Detrás de las paredes (2011) OPEN MATTE Web-DL 1080p Latino

Datos de la película

  • Calidad: WEBDL
  • Audio: Se especifica abajo de la Sinopsis
  • Subtitulos: Español Latino SRT - Ingles SRT
  • Resolución: 1920x1080p
  • Formato: MKV
  • Codec: H.264
  • Encoder: CinefiloCool
  • Mediainfo: Clic para Mostrar Datos Ver
  • Detras De Las Paredes (2011) OPEN MATTE Web 1080p Latino-CMHDD.mkv
    Format                      : Matroska
    Format version              : Version 4
    File size                   : 5.13 GiB
    Duration                    : 1 h 31 min
    Overall bit rate            : 7 995 kb/s
    Movie name                  : Dream House (2011) CinemaniaHDD.Net
    Encoded date                : UTC 2022-03-03 05:19:00
    Writing application         : mkvmerge v56.1.0 ('My Friend') 64-bit
    Writing library             : libebml v1.4.2 + libmatroska v1.6.4
    Attachments                 : CINEMANIAHD.png

    Video
    ID                          : 1
    Format                      : AVC
    Format/Info                 : Advanced Video Codec
    Format profile              : High@L4
    Format settings             : CABAC / 4 Ref Frames
    Format settings, CABAC      : Yes
    Format settings, Reference  : 4 frames
    Codec ID                    : V_MPEG4/ISO/AVC
    Duration                    : 1 h 31 min
    Bit rate                    : 6 723 kb/s
    Width                       : 1 920 pixels
    Height                      : 1 080 pixels
    Display aspect ratio        : 16:9
    Frame rate mode             : Constant
    Frame rate                  : 23.976 (24000/1001) FPS
    Color space                 : YUV
    Chroma subsampling          : 4:2:0
    Bit depth                   : 8 bits
    Scan type                   : Progressive
    Bits/(Pixel*Frame)          : 0.135
    Stream size                 : 4.31 GiB (84%)
    Title                       : Web Open Matte [CinemaniaHDD]
    Default                     : Yes
    Forced                      : Yes
    Color range                 : Limited
    Color primaries             : BT.709
    Transfer characteristics    : BT.709
    Matrix coefficients         : BT.709

    Audio #1
    ID                          : 2
    Format                      : AC-3
    Format/Info                 : Audio Coding 3
    Commercial name             : Dolby Digital
    Codec ID                    : A_AC3
    Duration                    : 1 h 31 min
    Bit rate mode               : Constant
    Bit rate                    : 640 kb/s
    Channel(s)                  : 6 channels
    Channel layout              : L R C LFE Ls Rs
    Sampling rate               : 48.0 kHz
    Frame rate                  : 31.250 FPS (1536 SPF)
    Compression mode            : Lossy
    Stream size                 : 420 MiB (8%)
    Title                       : Español Latino [CinemaniaHDD]
    Language                    : Spanish
    Service kind                : Complete Main
    Default                     : Yes
    Forced                      : Yes

    Audio #2
    ID                          : 3
    Format                      : E-AC-3
    Format/Info                 : Enhanced AC-3
    Commercial name             : Dolby Digital Plus
    Codec ID                    : A_EAC3
    Duration                    : 1 h 31 min
    Bit rate mode               : Constant
    Bit rate                    : 640 kb/s
    Channel(s)                  : 6 channels
    Channel layout              : L R C LFE Ls Rs
    Sampling rate               : 48.0 kHz
    Frame rate                  : 31.250 FPS (1536 SPF)
    Compression mode            : Lossy
    Stream size                 : 420 MiB (8%)
    Title                       : Ingles [CinemaniaHDD]
    Language                    : English
    Service kind                : Complete Main
    Default                     : No
    Forced                      : No

    Text #1
    ID                          : 4
    Format                      : UTF-8
    Codec ID                    : S_TEXT/UTF8
    Codec ID/Info               : UTF-8 Plain Text
    Duration                    : 1 h 28 min
    Bit rate                    : 0 b/s
    Count of elements           : 7
    Stream size                 : 203 Bytes (0%)
    Title                       : Forzados-SRT [CinemaniaHDD]
    Language                    : Spanish
    Default                     : Yes
    Forced                      : Yes

    Text #2
    ID                          : 5
    Format                      : UTF-8
    Codec ID                    : S_TEXT/UTF8
    Codec ID/Info               : UTF-8 Plain Text
    Duration                    : 1 h 30 min
    Bit rate                    : 38 b/s
    Count of elements           : 888
    Stream size                 : 25.4 KiB (0%)
    Title                       : Español-SRT [CinemaniaHDD]
    Language                    : Spanish
    Default                     : No
    Forced                      : No

    Text #3
    ID                          : 6
    Format                      : UTF-8
    Codec ID                    : S_TEXT/UTF8
    Codec ID/Info               : UTF-8 Plain Text
    Duration                    : 1 h 23 min
    Bit rate                    : 41 b/s
    Count of elements           : 982
    Stream size                 : 25.3 KiB (0%)
    Title                       : Ingles-SRT [CinemaniaHDD]
    Language                    : English
    Default                     : No
    Forced                      : No

  • Peso: 5.13 GiB

Sinopsis

Descargar Detrás de las paredes (2011) OPEN MATTE Web-DL 1080p Latino. Will Atenton, un editor de gran éxito, abandona su trabajo, un puesto con mucho poder en Manhattan, para irse a vivir con su mujer, Libby, y sus dos hijas a un pintoresco pueblo de Nueva Inglaterra. Pero cuando se empiezan a acostumbrar a su nueva vida, descubren que su perfecta casa ha sido el escenario del asesinato de una madre y sus hijos. Y todo el pueblo piensa que el crimen fue cometido por el marido, el único superviviente. Cuando Will comienza a investigar, no está seguro de si está empezando a ver fantasmas o es que la trágica historia le resulta demasiado cercana. Las únicas pistas provienen de Ann Patterson, una misteriosa vecina que conocía a los desaparecidos. Mientras Will y Ann van encajando las piezas del inquietante puzzle, tienen que descubrir quién asesinó a la familia antes de que vuelva a matar.

Audio Español Latino AC3 5.1 Bluray – Ingles EAC3 5.1 Web-DL

Ficha técnica

Video trailer de la película

Enlaces de descarga

Rip de Bluray

Descargar Detrás de las paredes (2011) OPEN MATTE Web-DL 1080p Latino




Aportes de DPeliculasHDmega la pass es:dpeliculashdmega.org Aportes de CinemaniaHD la pass es:cinemaniahdd.com
Guardado en : Drama , Misterio , OPEN MATTE , Suspenso

Películas relacionadas

  • Lobo Vikingo (2022) NF WEB-DL 1080p Latino

    Lobo Vikingo (2022) NF WEB-DL 1080p Latino

    2022
    Lobo Vikingo (2022) NF WEB-DL 1080p Latino

    1h 38m 2022

    Descargar Lobo Vikingo (2022) NF WEB-DL 1080p Latino. Thale (17) acaba de mudarse con sus padres a un...

    Director: Stig Svendsen

    Género: Netflix

    Actores: Vidar Magnussen

  • Stromboli (2022) NF WEB-DL 1080p Latino

    Stromboli (2022) NF WEB-DL 1080p Latino

    2022
    Stromboli (2022) NF WEB-DL 1080p Latino

    1h 26m 2022

    Descargar Stromboli (2022) NF WEB-DL 1080p Latino. Sara, una mujer que se ha divorciado recientemente,...

    Director: Michiel van Erp

    Género: Drama

    Actores: Tim McInnerny

  • Infiesto (2023) NF WEB-DL 1080p Castellano

    Infiesto (2023) NF WEB-DL 1080p Castellano

    2023
    Infiesto (2023) NF WEB-DL 1080p Castellano

    1h 36m 2023

    Descargar Infiesto (2023) NF WEB-DL 1080p Castellano. Mientras el coronavirus trastoca sus vidas, dos...

    Director: Patxi Amezcua

    Género: Crimen

    Actores: Luis Zahera

  • Espiritu Libre (2023) NF WEB-DL 1080p Latino

    Espiritu Libre (2023) NF WEB-DL 1080p Latino

    2023
    Espiritu Libre (2023) NF WEB-DL 1080p Latino

    1h 49m 2023

    Descargar Espiritu Libre (2023) NF WEB-DL 1080p Latino. La película se basa en la increíble historia...

    Director: Sarah Spillane

    Género: Aventura

    Actores: Vivien Turner

descargar Detrás de las paredes (2011) OPEN MATTE Web-DL 1080p Latino WEBDL 1080p gratis, Detrás de las paredes (2011) OPEN MATTE Web-DL 1080p Latino WEBDL mega 1 link, Detrás de las paredes (2011) OPEN MATTE Web-DL 1080p Latino WEBDL pelicula completa, descargar Detrás de las paredes (2011) OPEN MATTE Web-DL 1080p Latino WEBDL gratis en mega.

Detrás de las paredes (2011) OPEN MATTE Web-DL 1080p Latino pelicula full hd, Detrás de las paredes (2011) OPEN MATTE Web-DL 1080p Latino mega latino, Detrás de las paredes (2011) OPEN MATTE Web-DL 1080p Latino 4k latino, Detrás de las paredes (2011) OPEN MATTE Web-DL 1080p Latino pelicula completa, Detrás de las paredes (2011) OPEN MATTE Web-DL 1080p Latino descargar gratis, descargar Detrás de las paredes (2011) OPEN MATTE Web-DL 1080p Latino pelicula latino, Detrás de las paredes (2011) OPEN MATTE Web-DL 1080p Latino 1 link mega, Detrás de las paredes (2011) OPEN MATTE Web-DL 1080p Latino 1 link google drive, Detrás de las paredes (2011) OPEN MATTE Web-DL 1080p Latino hd 1080p latino.
Comentarios 0