Dragon Ball Z (1989-1996) Serie Completa 1080p Latino – CMHDD

306 vistas
1 estrella2 estrellas3 estrellas4 estrellas5 estrellas (3 votos, promedio: 5,00 de 5)
Cargando...

Información de Dragon Ball Z (1989-1996) Serie Completa 1080p Latino – CMHDD

Datos de la película

  • Calidad: 1080p
  • Audio: Se especifica abajo de la Sinopsis
  • Subtitulos: Español Latino SRT
  • Resolución: 1920x1080p
  • Formato: MKV
  • Codec: H.264
  • Encoder: Dracarys
  • Mediainfo: Clic para Mostrar Datos Ver
  • Format                      : Matroska
    Format version              : Version 4
    File size                   : 391 MiB
    Duration                    : 24 min 13 s
    Overall bit rate            : 2 253 kb/s
    Movie name                  : Dragon Ball Z [147] HD 1080p Latino - CMHDD
    Encoded date                : UTC 2020-11-14 20:55:12
    Writing application         : mkvmerge v51.0.0 ('I Wish') 64-bit
    Writing library             : libebml v1.4.0 + libmatroska v1.6.2

    Video
    ID                          : 1
    Format                      : AVC
    Format/Info                 : Advanced Video Codec
    Format profile              : High@L4.1
    Format settings             : CABAC / 4 Ref Frames
    Format settings, CABAC      : Yes
    Format settings, Reference  : 4 frames
    Codec ID                    : V_MPEG4/ISO/AVC
    Duration                    : 24 min 13 s
    Bit rate                    : 1 899 kb/s
    Width                       : 1 920 pixels
    Height                      : 1 080 pixels
    Display aspect ratio        : 16:9
    Frame rate mode             : Constant
    Frame rate                  : 23.976 (24000/1001) FPS
    Color space                 : YUV
    Chroma subsampling          : 4:2:0
    Bit depth                   : 8 bits
    Scan type                   : Progressive
    Bits/(Pixel*Frame)          : 0.038
    Stream size                 : 329 MiB (84%)
    Writing library             : x264 core 138 r2358 9e941d1
    Encoding settings           : cabac=1 / ref=4 / deblock=1:1:1 / analyse=0x3:0x133 / me=umh / subme=10 / psy=1 / psy_rd=0.40:0.00 / mixed_ref=1 / me_range=24 / chroma_me=1 / trellis=2 / 8x8dct=1 / cqm=0 / deadzone=21,11 / fast_pskip=1 / chroma_qp_offset=-2 / threads=12 / lookahead_threads=3 / sliced_threads=0 / nr=0 / decimate=1 / interlaced=0 / bluray_compat=0 / constrained_intra=0 / bframes=10 / b_pyramid=2 / b_adapt=2 / b_bias=0 / direct=3 / weightb=1 / open_gop=0 / weightp=2 / keyint=240 / keyint_min=23 / scenecut=40 / intra_refresh=0 / rc_lookahead=60 / rc=crf / mbtree=1 / crf=23.6 / qcomp=0.60 / qpmin=0 / qpmax=69 / qpstep=4 / vbv_maxrate=62500 / vbv_bufsize=78125 / crf_max=0.0 / nal_hrd=none / ip_ratio=1.40 / aq=1:0.60
    Default                     : Yes
    Forced                      : No

    Audio #1
    ID                          : 2
    Format                      : AAC LC
    Format/Info                 : Advanced Audio Codec Low Complexity
    Codec ID                    : A_AAC-2
    Duration                    : 24 min 13 s
    Bit rate                    : 128 kb/s
    Channel(s)                  : 2 channels
    Channel layout              : L R
    Sampling rate               : 44.1 kHz
    Frame rate                  : 43.066 FPS (1024 SPF)
    Compression mode            : Lossy
    Stream size                 : 22.1 MiB (6%)
    Title                       : Español Latino
    Language                    : Spanish
    Default                     : Yes
    Forced                      : No

    Audio #2
    ID                          : 3
    Format                      : AAC LC
    Format/Info                 : Advanced Audio Codec Low Complexity
    Codec ID                    : A_AAC-2
    Duration                    : 24 min 13 s
    Bit rate                    : 128 kb/s
    Channel(s)                  : 2 channels
    Channel layout              : L R
    Sampling rate               : 44.1 kHz
    Frame rate                  : 43.066 FPS (1024 SPF)
    Compression mode            : Lossy
    Stream size                 : 22.2 MiB (6%)
    Title                       : Ingles
    Language                    : English
    Default                     : No
    Forced                      : No

    Audio #3
    ID                          : 4
    Format                      : AC-3
    Format/Info                 : Audio Coding 3
    Commercial name             : Dolby Digital
    Codec ID                    : A_AC3
    Duration                    : 24 min 13 s
    Bit rate mode               : Constant
    Bit rate                    : 96.0 kb/s
    Channel(s)                  : 1 channel
    Channel layout              : C
    Sampling rate               : 48.0 kHz
    Frame rate                  : 31.250 FPS (1536 SPF)
    Compression mode            : Lossy
    Stream size                 : 16.6 MiB (4%)
    Title                       : Japones
    Language                    : Japanese
    Service kind                : Complete Main
    Default                     : No
    Forced                      : No

    Text #1
    ID                          : 5
    Format                      : ASS
    Codec ID                    : S_TEXT/ASS
    Codec ID/Info               : Advanced Sub Station Alpha
    Duration                    : 23 min 48 s
    Bit rate                    : 80 b/s
    Count of elements           : 236
    Compression mode            : Lossless
    Stream size                 : 14.0 KiB (0%)
    Title                       : Español Latino
    Language                    : Spanish
    Default                     : Yes
    Forced                      : No

    Text #2
    ID                          : 6
    Format                      : UTF-8
    Codec ID                    : S_TEXT/UTF8
    Codec ID/Info               : UTF-8 Plain Text
    Duration                    : 23 min 48 s
    Bit rate                    : 53 b/s
    Count of elements           : 236
    Stream size                 : 9.29 KiB (0%)
    Title                       : Español Latino
    Language                    : Spanish
    Default                     : No
    Forced                      : No

    Text #3
    ID                          : 7
    Format                      : UTF-8
    Codec ID                    : S_TEXT/UTF8
    Codec ID/Info               : UTF-8 Plain Text
    Duration                    : 23 min 48 s
    Bit rate                    : 49 b/s
    Count of elements           : 236
    Stream size                 : 8.63 KiB (0%)
    Title                       : Ingles
    Language                    : English
    Default                     : No
    Forced                      : No

  • Peso: 124 GB Total

Sinopsis

Es la continuación de la serie de anime ‘Dragon Ball’. Se divide básicamente en cuatro sagas: la llegada de los Saiyajins, la batalla contra Freezer, el nacimiento de Célula y el despertar de Monstruo Bu. De éstas se desprenden subsagas y algunas otras historias que no son originales del manga.

 

Latino – Ingles – Japones

Ficha técnica

Video trailer de la película

Enlaces de descarga

Rip de Bluray

Descargar Dragon Ball Z (1989-1996) Serie Completa 1080p Latino – CMHDD




Aportes de DPeliculasHDmega la pass es:dpeliculashdmega.org Aportes de CinemaniaHD la pass es:cinemaniahdd.com

Películas relacionadas

  • Howard the Duck (1986) REMUX 1080p Latino – CMHDD

    Howard the Duck (1986) REMUX 1080p Latino – CMHDD

    1986
    Howard the Duck (1986) REMUX 1080p Latino – CMHDD

    0.0 1h 51m 1986

    Desde un lejano planeta, y debido a un error de un laboratorio espacial, llega a La Tierra teletransportado...

    Director: Willard Huyck

    Género: Ciencia ficción

    Actores: Wood Moy

  • Space Jam (1996) REMUX 1080p Latino – CMHDD

    Space Jam (1996) REMUX 1080p Latino – CMHDD

    1996
    Space Jam (1996) REMUX 1080p Latino – CMHDD

    0.0 1h 27m 1996

    Bugs Bunny y su equipo desafían a los Nerdlucks (un grupo de pequeños extraterrestres) a un partido...

    Director: Pamela Cederquist

    Género: Animación

    Actores: William G. Schilling

  • En liberté! (2018) WEB-DL 1080p Latino

    En liberté! (2018) WEB-DL 1080p Latino

    2018
    En liberté! (2018) WEB-DL 1080p Latino

    5.0 1h 48m 2018

    El detective Yvonne es la viuda del jefe de policía Santi, un héroe local en un pueblo de la Riviera...

    Director: Pierre Salvadori

    Género: Comedia

    Actores: Vincent Elbaz

Dragon Ball Z (1989-1996) Serie Completa 1080p Latino – CMHDD pelicula full hd, Dragon Ball Z (1989-1996) Serie Completa 1080p Latino – CMHDD mega latino, Dragon Ball Z (1989-1996) Serie Completa 1080p Latino – CMHDD 4k latino, Dragon Ball Z (1989-1996) Serie Completa 1080p Latino – CMHDD pelicula completa, Dragon Ball Z (1989-1996) Serie Completa 1080p Latino – CMHDD descargar gratis, descargar Dragon Ball Z (1989-1996) Serie Completa 1080p Latino – CMHDD pelicula latino, Dragon Ball Z (1989-1996) Serie Completa 1080p Latino – CMHDD 1 link mega, Dragon Ball Z (1989-1996) Serie Completa 1080p Latino – CMHDD 1 link google drive, Dragon Ball Z (1989-1996) Serie Completa 1080p Latino – CMHDD hd 1080p latino.
Comentarios 2
  • Nahuel - 15 noviembre, 2020

    van a subirlo en mega?

    • Dracarys - 15 noviembre, 2020

      luego