×

¿Problemas para descargar con Mozilla, EDGE? Deshabilita la opción "Abrir vinculos en una pestaña nueva" tal como lo muestra ésta imagen.

Dragon Ball Super: Super Hero (2022) REMUX 1080p Latino

296 vistas

Información de Dragon Ball Super: Super Hero (2022) REMUX 1080p Latino

Datos de la película

  • Calidad: Full 1080p
  • Audio: Se especifica abajo de la Sinopsis
  • Subtitulos: Español Latino SRT- FORZADOS SRT
  • Resolución: 1920x1080p
  • Formato: MKV
  • Codec: H.264
  • Encoder: Melkor
  • Mediainfo: Clic para Mostrar Datos Ver
  • Dragon Ball Super. Super Hero (2022) REMUX 1080p Latino.mkv
    Format                      : Matroska
    Format version              : Version 4
    File size                   : 28.2 GiB
    Duration                    : 1 h 39 min
    Overall bit rate mode       : Variable
    Overall bit rate            : 40.4 Mb/s
    Movie name                  : Dragon Ball Super: Super Hero (2022)
    Encoded date                : UTC 2023-07-20 23:57:55
    Writing application         : mkvmerge v56.1.0 ('My Friend') 64-bit
    Writing library             : libebml v1.4.2 + libmatroska v1.6.4
    Attachments                 : CINEMANIAHD.png

    Video
    ID                          : 1
    Format                      : AVC
    Format/Info                 : Advanced Video Codec
    Format profile              : High@L4.1
    Format settings             : CABAC / 4 Ref Frames
    Format settings, CABAC      : Yes
    Format settings, Reference  : 4 frames
    Codec ID                    : V_MPEG4/ISO/AVC
    Duration                    : 1 h 39 min
    Bit rate mode               : Variable
    Bit rate                    : 34.2 Mb/s
    Maximum bit rate            : 38.5 Mb/s
    Width                       : 1 920 pixels
    Height                      : 1 080 pixels
    Display aspect ratio        : 16:9
    Frame rate mode             : Constant
    Frame rate                  : 23.976 (24000/1001) FPS
    Color space                 : YUV
    Chroma subsampling          : 4:2:0
    Bit depth                   : 8 bits
    Scan type                   : Progressive
    Bits/(Pixel*Frame)          : 0.688
    Stream size                 : 23.8 GiB (85%)
    Title                       : REMUX HD1080p [CinemaniaHDD]
    Default                     : Yes
    Forced                      : Yes

    Audio #1
    ID                          : 2
    Format                      : AC-3
    Format/Info                 : Audio Coding 3
    Commercial name             : Dolby Digital
    Codec ID                    : A_AC3
    Duration                    : 1 h 39 min
    Bit rate mode               : Constant
    Bit rate                    : 256 kb/s
    Channel(s)                  : 2 channels
    Channel layout              : L R
    Sampling rate               : 48.0 kHz
    Frame rate                  : 31.250 FPS (1536 SPF)
    Compression mode            : Lossy
    Stream size                 : 183 MiB (1%)
    Title                       : Español Latino [CinemaniaHDD]
    Language                    : Spanish
    Service kind                : Complete Main
    Default                     : Yes
    Forced                      : Yes

    Audio #2
    ID                          : 3
    Format                      : MLP FBA 16-ch
    Format/Info                 : Meridian Lossless Packing FBA with 16-channel presentation
    Commercial name             : Dolby TrueHD with Dolby Atmos
    Codec ID                    : A_TRUEHD
    Duration                    : 1 h 39 min
    Bit rate mode               : Variable
    Bit rate                    : 5 173 kb/s
    Maximum bit rate            : 9 492 kb/s
    Channel(s)                  : 8 channels
    Channel layout              : L R C LFE Ls Rs Lb Rb
    Sampling rate               : 48.0 kHz
    Frame rate                  : 1 200.000 FPS (40 SPF)
    Compression mode            : Lossless
    Stream size                 : 3.61 GiB (13%)
    Title                       : Japones [CinemaniaHDD]
    Language                    : Japanese
    Default                     : No
    Forced                      : No
    Number of dynamic objects   : 15
    Bed channel count           : 1 channel
    Bed channel configuration   : LFE

    Audio #3
    ID                          : 4
    Format                      : AC-3
    Format/Info                 : Audio Coding 3
    Commercial name             : Dolby Digital
    Codec ID                    : A_AC3
    Duration                    : 1 h 39 min
    Bit rate mode               : Constant
    Bit rate                    : 640 kb/s
    Channel(s)                  : 6 channels
    Channel layout              : L R C LFE Ls Rs
    Sampling rate               : 48.0 kHz
    Frame rate                  : 31.250 FPS (1536 SPF)
    Compression mode            : Lossy
    Stream size                 : 457 MiB (2%)
    Title                       : Japones AC3 [CinemaniaHDD]
    Language                    : Japanese
    Service kind                : Complete Main
    Default                     : No
    Forced                      : No

    Text #1
    ID                          : 5
    Format                      : UTF-8
    Codec ID                    : S_TEXT/UTF8
    Codec ID/Info               : UTF-8 Plain Text
    Duration                    : 1 h 36 min
    Bit rate                    : 0 b/s
    Count of elements           : 11
    Stream size                 : 139 Bytes (0%)
    Title                       : Forzados-SRT [CinemaniaHDD]
    Language                    : Spanish
    Default                     : Yes
    Forced                      : Yes

    Text #2
    ID                          : 6
    Format                      : UTF-8
    Codec ID                    : S_TEXT/UTF8
    Codec ID/Info               : UTF-8 Plain Text
    Duration                    : 1 h 39 min
    Bit rate                    : 65 b/s
    Count of elements           : 1401
    Stream size                 : 47.5 KiB (0%)
    Title                       : Español-SRT [CinemaniaHDD]
    Language                    : Spanish
    Default                     : No
    Forced                      : No

    Text #3
    ID                          : 7
    Format                      : PGS
    Muxing mode                 : zlib
    Codec ID                    : S_HDMV/PGS
    Codec ID/Info               : Picture based subtitle format used on BDs/HD-DVDs
    Duration                    : 1 h 39 min
    Bit rate                    : 184 kb/s
    Count of elements           : 7709
    Stream size                 : 131 MiB (0%)
    Title                       : Japones-PGS [CinemaniaHDD]
    Language                    : Japanese
    Default                     : No
    Forced                      : No

    Menu
    00:00:00.000                : Red Ribbon Army
    00:05:04.763                : Dr. Hedo
    00:13:12.208                : Pan and Piccolo
    00:18:26.605                : Piccolo vs Gamma 2
    00:21:45.804                : Infiltrate the Secret Base
    00:28:48.894                : Beerus' Planet
    00:34:41.705                : Match Start
    00:38:37.482                : Piccolo's Rush
    00:43:00.828                : Come Forth, Shenron!
    00:48:36.247                : Kidnapped Pan
    00:53:31.750                : Gohan vs Gamma 1
    00:58:08.777                : Gohan's Awakening
    01:02:04.888                : Orange Piccolo
    01:07:59.200                : Activate Cell Max
    01:15:56.427                : Gamma 2's Resolution
    01:20:40.044                : True Power
    01:25:02.889                : Gohan Beast
    01:28:27.052                : Next Steps
    01:34:05.723                : End Roll
    01:38:05.963                : The End of the Match

  • Peso: 28.2 GiB

Sinopsis

Descargar Dragon Ball Super: Super Hero (2022) REMUX 1080p Latino. Son Goku destruyó en su momento al Ejército Red Ribbon. Ahora, ciertos individuos han decidido continuar con su legado y han creado a los androides definitivos: Gamma 1 y Gamma 2. Estos dos androides se autoproclaman «superhéroes» y deciden atacar a Piccolo y a Gohan. ¿Cuál es el objetivo del Nuevo Ejército Red Ribbon? Ante un peligro inminente, ¡llega el momento del despertar del Superhéroe!

Español Latino AC3 2.0 Web – Japones TrueHD 7.1 & Core AC3 5.1 BD

Ficha técnica

Video trailer de la película

Enlaces de descarga

Rip de Bluray

Descargar Dragon Ball Super: Super Hero (2022) REMUX 1080p Latino




Aportes de DPeliculasHDmega la pass es:dpeliculashdmega.org Aportes de CinemaniaHD la pass es:cinemaniahdd.com Aportes recientes:cinemaniahdd.net

Películas relacionadas

descargar Dragon Ball Super: Super Hero (2022) REMUX 1080p Latino Full 1080p 1080p gratis, Dragon Ball Super: Super Hero (2022) REMUX 1080p Latino Full 1080p mega 1 link, Dragon Ball Super: Super Hero (2022) REMUX 1080p Latino Full 1080p pelicula completa, descargar Dragon Ball Super: Super Hero (2022) REMUX 1080p Latino Full 1080p gratis en mega.

Dragon Ball Super: Super Hero (2022) REMUX 1080p Latino pelicula full hd, Dragon Ball Super: Super Hero (2022) REMUX 1080p Latino mega latino, Dragon Ball Super: Super Hero (2022) REMUX 1080p Latino 4k latino, Dragon Ball Super: Super Hero (2022) REMUX 1080p Latino pelicula completa, Dragon Ball Super: Super Hero (2022) REMUX 1080p Latino descargar gratis, descargar Dragon Ball Super: Super Hero (2022) REMUX 1080p Latino pelicula latino, Dragon Ball Super: Super Hero (2022) REMUX 1080p Latino 1 link mega, Dragon Ball Super: Super Hero (2022) REMUX 1080p Latino 1 link google drive, Dragon Ball Super: Super Hero (2022) REMUX 1080p Latino hd 1080p latino.
Comentarios 0