Dragon Ball Super (2015) Full 1080p Latino

67.546 vistas
1 estrella2 estrellas3 estrellas4 estrellas5 estrellas (28 votos, promedio: 4,00 de 5)
Cargando…

Información de Dragon Ball Super (2015) Full 1080p Latino

Datos de la película

  • Calidad: Full 1080p
  • Audio: Español Latino AC3 2.0 Capturado - Japones AC3 2.0 BLURAY
  • Subtitulos: Español Latino SRT - Ingles SRT
  • Resolución: 1920x1080p
  • Formato: MKV
  • Codec: H.264
  • Encoder: Dpelis
  • Mediainfo: Clic para Mostrar Datos Ver
  • Dragon ball Super Capitulo 1 Full Latino.mkv
    Format                      : Matroska
    Format version              : Version 4 / Version 2
    File size                   : 491 MiB
    Duration                    : 23 min 6 s
    Overall bit rate            : 2 970 kb/s
    Movie name                  : DPeliculasHDMega.ORG
    Encoded date                : UTC 2017-08-07 22:06:41 / UTC 2017-08-07T12:32:11Z
    Writing application         : mkvmerge v10.0.0 ('To Drown In You') 64bit
    Writing library             : libebml v1.3.4 + libmatroska v1.4.5 / Lavf57.7.2

    Video
    ID                          : 1
    Format                      : AVC
    Format/Info                 : Advanced Video Codec
    Format profile              : High@L4.1
    Format settings, CABAC      : Yes
    Format settings, ReFrames   : 4 frames
    Codec ID                    : V_MPEG4/ISO/AVC
    Duration                    : 23 min 6 s
    Bit rate                    : 2 399 kb/s
    Width                       : 1 920 pixels
    Height                      : 1 080 pixels
    Display aspect ratio        : 16:9
    Frame rate mode             : Constant
    Frame rate                  : 23.976 (24000/1001) FPS
    Color space                 : YUV
    Chroma subsampling          : 4:2:0
    Bit depth                   : 8 bits
    Scan type                   : Progressive
    Bits/(Pixel*Frame)          : 0.048
    Stream size                 : 396 MiB (81%)
    Writing library             : x264 core 148 r2708 86b7198
    Encoding settings           : cabac=1 / ref=4 / deblock=1:0:0 / analyse=0x3:0x133 / me=esa / subme=9 / psy=1 / psy_rd=1.00:0.00 / mixed_ref=1 / me_range=16 / chroma_me=1 / trellis=2 / 8x8dct=1 / cqm=0 / deadzone=21,11 / fast_pskip=1 / chroma_qp_offset=-2 / threads=12 / lookahead_threads=1 / sliced_threads=0 / nr=0 / decimate=1 / interlaced=0 / bluray_compat=0 / constrained_intra=0 / bframes=3 / b_pyramid=2 / b_adapt=2 / b_bias=0 / direct=3 / weightb=1 / open_gop=0 / weightp=2 / keyint=240 / keyint_min=24 / scenecut=40 / intra_refresh=0 / rc_lookahead=60 / rc=crf / mbtree=1 / crf=21.0 / qcomp=0.60 / qpmin=0 / qpmax=69 / qpstep=4 / vbv_maxrate=62500 / vbv_bufsize=78125 / crf_max=0.0 / nal_hrd=none / filler=0 / ip_ratio=1.40 / aq=1:1.00
    Default                     : Yes
    Forced                      : No
    Color range                 : Limited
    Color primaries             : BT.709
    Transfer characteristics    : BT.709
    Matrix coefficients         : BT.709
    Statistics Tags Issue       : mkvmerge v10.0.0 ('To Drown In You') 64bit 2017-08-07 22:06:41 / mkvmerge v10.0.0 ('To Drown In You') 64bit 2017-08-07 22:06:41 / UTC 2017-08-07T12:32:11Z
    FromStats_BitRate           : 2455861
    FromStats_Duration          : 00:23:06.218000000
    FromStats_FrameCount        : 33236
    FromStats_StreamSize        : 425544949

    Audio #1
    ID                          : 2
    Format                      : AC-3
    Format/Info                 : Audio Coding 3
    Format settings, Endianness : Big
    Codec ID                    : A_AC3
    Duration                    : 23 min 6 s
    Bit rate mode               : Constant
    Bit rate                    : 256 kb/s
    Channel(s)                  : 2 channels
    Channel positions           : Front: L R
    Sampling rate               : 48.0 kHz
    Frame rate                  : 31.250 FPS (1536 spf)
    Bit depth                   : 16 bits
    Compression mode            : Lossy
    Stream size                 : 42.3 MiB (9%)
    Language                    : Spanish
    Service kind                : Complete Main
    Default                     : Yes
    Forced                      : No
    Statistics Tags Issue       : mkvmerge v10.0.0 ('To Drown In You') 64bit 2017-08-07 22:06:41 / mkvmerge v10.0.0 ('To Drown In You') 64bit 2017-08-07 22:06:41 / UTC 2017-08-07T12:32:11Z
    FromStats_BitRate           : 256000
    FromStats_Duration          : 00:23:05.216000000
    FromStats_FrameCount        : 43288
    FromStats_StreamSize        : 44326912

    Audio #2
    ID                          : 3
    Format                      : AC-3
    Format/Info                 : Audio Coding 3
    Format settings, Endianness : Big
    Codec ID                    : A_AC3
    Duration                    : 23 min 6 s
    Bit rate mode               : Constant
    Bit rate                    : 256 kb/s
    Channel(s)                  : 2 channels
    Channel positions           : Front: L R
    Sampling rate               : 48.0 kHz
    Frame rate                  : 31.250 FPS (1536 spf)
    Bit depth                   : 16 bits
    Compression mode            : Lossy
    Delay relative to video     : 45 ms
    Stream size                 : 42.3 MiB (9%)
    Title                       : Stereo
    Language                    : Japanese
    Service kind                : Complete Main
    Default                     : No
    Forced                      : No
    Statistics Tags Issue       : mkvmerge v10.0.0 ('To Drown In You') 64bit 2017-08-07 22:06:41 / mkvmerge v10.0.0 ('To Drown In You') 64bit 2017-08-07 22:06:41 / UTC 2017-08-07T12:32:11Z
    FromStats_BitRate           : 256000
    FromStats_Duration          : 00:23:06.144000000
    FromStats_FrameCount        : 43317
    FromStats_StreamSize        : 44356608

    Text
    ID                          : 4
    Format                      : ASS
    Codec ID                    : S_TEXT/ASS
    Codec ID/Info               : Advanced Sub Station Alpha
    Compression mode            : Lossless
    Language                    : Spanish
    Default                     : No
    Forced                      : No
    Statistics Tags Issue       : mkvmerge v10.0.0 ('To Drown In You') 64bit 2017-08-07 22:06:41 / mkvmerge v10.0.0 ('To Drown In You') 64bit 2017-08-07 22:06:41 / UTC 2017-08-07T12:32:11Z
    FromStats_BitRate           : 86
    FromStats_Duration          : 00:23:02.090000000
    FromStats_FrameCount        : 308
    FromStats_StreamSize        : 14969

  • Peso: 500 MB Aprox C/U Actualizable ( 67 Capitulos Disponible Latino)

Sinopsis

Si eres un seguidor de la serie Dragon ball super latino, entonces ahora puedes disfrutar de esta maravillosa serie, es mas ahora es Latino disfrutaras de Dragon ball Super hd latino. La trama de la serie tiene lugar después de la batalla contra Pequeño Buu en medio del período de 10 años hacia el Torneo Mundial de las Artes Marciales 28. Está enlazada con las películas Dragon Ball Z: La Batalla de los Dioses y Dragon Ball Z: La Resurrección de F. La historia comienza a finales del Año 774, seis meses después de la derrota de Buu. La actual saga de Trunks del Futuro Alternativo ocurre el Año 780.

Se agregaran  los demas Capitulos el dia que se filtre por CN.  

Nota: algunos subtitulos debe activar subtitulos forzados

Ficha técnica

Video trailer de la película

Enlaces de descarga

Rip de Bluray

Descargar Dragon Ball Super (2015) Full 1080p Latino




Aportes de DPeliculasHDmega la pass es:dpeliculashdmega.org Aportes de CinemaniaHD la pass es:cinemaniahdd.com
Guardado en : Anime , FULL 1080p Plateadas , Series

Películas relacionadas

  • Mision: Imposible 2 (2000) Full 1080p Latino

    2000
    Mision: Imposible 2 (2000) Full 1080p Latino

    3.0 2h 3m 2000

    Descargar Mision: Imposible 2 (2000) Full 1080p Latino, Mega, Google Drive. El agente especial Ethan...

    Director: William H. Burton Jr.

    Género: Acción

    Actores: William Mapother

  • Mision: Imposible (1996) Full 1080p Latino

    1996
    Mision: Imposible (1996) Full 1080p Latino

    3.7 1h 50m 1996

    Mission: Impossible (1996) Full 1080p Latino, Mega, Google Drive. Ethan Hunt es un superespía capaz...

    Director: Nick Moore

    Género: Acción

    Actores: Ving Rhames

  • Los increíbles 2 (2018) Full 1080p Latino

    2018
    Los increíbles 2 (2018) Full 1080p Latino

    4.4 1h 58m 2018

    Helen tiene que liderar una campaña para que los superhéroes regresen, mientras Bob vive su vida "normal"...

    Director: Seong-Young Kim

    Género: Acción

    Actores: Usher