×

¿Problemas para descargar con Mozilla, EDGE? Deshabilita la opción "Abrir vinculos en una pestaña nueva" tal como lo muestra ésta imagen.

Dragon Ball La Princesa Durmiente en el Castillo Embrujado (1987) REMUX 1080p Latino – CMHDD

233 vistas

Información de Dragon Ball La Princesa Durmiente en el Castillo Embrujado (1987) REMUX 1080p Latino – CMHDD

Datos de la película

  • Calidad: Full 1080p
  • Audio: Español Latino AC3 2.0
  • Subtitulos: No
  • Resolución: 1920x1080p
  • Formato: MKV
  • Codec: H.264
  • Encoder: Dracarys
  • Mediainfo: Clic para Mostrar Datos Ver
  • Format                      : Matroska
    Format version              : Version 4
    File size                   : 5.72 GiB
    Duration                    : 45 min 0 s
    Overall bit rate mode       : Constant
    Overall bit rate            : 18.2 Mb/s
    Movie name                  : Dragon Ball La Princesa Durmiente en el Castillo Embrujado (1987) REMUX 1080p Latino - CMHDD
    Encoded date                : UTC 2023-03-16 05:04:14
    Writing application         : mkvmerge v47.0.0 ('Black Flag') 64-bit
    Writing library             : libebml v1.3.10 + libmatroska v1.5.2

    Video
    ID                          : 1
    Format                      : MPEG Video
    Format version              : Version 2
    Format profile              : Main@High
    Format settings             : BVOP
    Format settings, BVOP       : Yes
    Format settings, Matrix     : Default
    Format settings, GOP        : M=3, N=12
    Codec ID                    : V_MPEG2
    Codec ID/Info               : MPEG 1 or 2 Video
    Duration                    : 45 min 0 s
    Bit rate mode               : Constant
    Bit rate                    : 18.0 Mb/s
    Width                       : 1 920 pixels
    Height                      : 1 080 pixels
    Display aspect ratio        : 16:9
    Frame rate mode             : Constant
    Frame rate                  : 23.976 (24000/1001) FPS
    Color space                 : YUV
    Chroma subsampling          : 4:2:0
    Bit depth                   : 8 bits
    Scan type                   : Progressive
    Compression mode            : Lossy
    Bits/(Pixel*Frame)          : 0.362
    Time code of first frame    : 00:00:00:00
    Time code source            : Group of pictures header
    GOP, Open/Closed            : Closed
    Stream size                 : 5.66 GiB (99%)
    Default                     : Yes
    Forced                      : No

    Audio
    ID                          : 2
    Format                      : AC-3
    Format/Info                 : Audio Coding 3
    Commercial name             : Dolby Digital
    Codec ID                    : A_AC3
    Duration                    : 45 min 0 s
    Bit rate mode               : Constant
    Bit rate                    : 192 kb/s
    Channel(s)                  : 2 channels
    Channel layout              : L R
    Sampling rate               : 48.0 kHz
    Frame rate                  : 31.250 FPS (1536 SPF)
    Compression mode            : Lossy
    Stream size                 : 61.8 MiB (1%)
    Language                    : Spanish
    Service kind                : Complete Main
    Default                     : Yes
    Forced                      : No
     

  • Peso: 5.72 GiB

Sinopsis

La Bella Durmiente en el Castillo del Mal es la 2ª película basada en la serie de manga y anime Dragon Ball estrenada el 18 de julio de 1987. Es una continuación directa de La Leyenda del Dragón Shenron. Para poder ser aceptados como alumnos del Duende Tortuga, Goku y Krilín deben cumplir una mision: salvar a la bella durmiente que descansa en el castillo del mal.

Ficha técnica

  • Titulo original: ドラゴンボール 魔神城のねむり姫
  • Fecha de lanzamiento: 18-07-1987 (Japan)
  • Director: Daisuke Nishio
  • Género: Acción, Animación

Video trailer de la película

Enlaces de descarga

Rip de Bluray

Descargar Dragon Ball La Princesa Durmiente en el Castillo Embrujado (1987) REMUX 1080p Latino – CMHDD


Aportes de DPeliculasHDmega la pass es:dpeliculashdmega.org Aportes de CinemaniaHD la pass es:cinemaniahdd.com Aportes recientes:cinemaniahdd.net
Guardado en : Acción , Animación

Películas relacionadas

descargar Dragon Ball La Princesa Durmiente en el Castillo Embrujado (1987) REMUX 1080p Latino – CMHDD Full 1080p 1080p gratis, Dragon Ball La Princesa Durmiente en el Castillo Embrujado (1987) REMUX 1080p Latino – CMHDD Full 1080p mega 1 link, Dragon Ball La Princesa Durmiente en el Castillo Embrujado (1987) REMUX 1080p Latino – CMHDD Full 1080p pelicula completa, descargar Dragon Ball La Princesa Durmiente en el Castillo Embrujado (1987) REMUX 1080p Latino – CMHDD Full 1080p gratis en mega.

Dragon Ball La Princesa Durmiente en el Castillo Embrujado (1987) REMUX 1080p Latino – CMHDD pelicula full hd, Dragon Ball La Princesa Durmiente en el Castillo Embrujado (1987) REMUX 1080p Latino – CMHDD mega latino, Dragon Ball La Princesa Durmiente en el Castillo Embrujado (1987) REMUX 1080p Latino – CMHDD 4k latino, Dragon Ball La Princesa Durmiente en el Castillo Embrujado (1987) REMUX 1080p Latino – CMHDD pelicula completa, Dragon Ball La Princesa Durmiente en el Castillo Embrujado (1987) REMUX 1080p Latino – CMHDD descargar gratis, descargar Dragon Ball La Princesa Durmiente en el Castillo Embrujado (1987) REMUX 1080p Latino – CMHDD pelicula latino, Dragon Ball La Princesa Durmiente en el Castillo Embrujado (1987) REMUX 1080p Latino – CMHDD 1 link mega, Dragon Ball La Princesa Durmiente en el Castillo Embrujado (1987) REMUX 1080p Latino – CMHDD 1 link google drive, Dragon Ball La Princesa Durmiente en el Castillo Embrujado (1987) REMUX 1080p Latino – CMHDD hd 1080p latino.
Comentarios 0